Правила форума

  • В этом разделе создание новых тем Запрещено.
  • Для создания новых тем пользуйтесь Корневым разделом DVD и HD фильмы.
Начать новую темуОтветить на тему  [ Сообщений: 8 ] 
Торрент файл
Размер: 6.67 GB • Зарегистрирован: 5 лет 5 месяцев • Статус: Проверено
Скачан: 65 раз • Желающих скачать: 0 • Поблагодарили: 16 раз
 Раздают: 0  |  0 KB/s  ]   Качают: 0  |  0 KB/s  ] 
 Полного источника не было 24 дня 
Сообщения
 Добавлено: 2011-06-11 19:23
Модератор релиз-группы
Аватара пользователя
Стаж: 9 лет 1 месяц
Возраст: 97
Сообщений: 11660
Спасибок: 6532
Лайков: 269
Человеческая многоножка / The Human Centipede (First Sequence)

Изображение


Год выпуска: 2009
Страна: Нидерланды
Слоган: «Two American girls and a Japanese man are part of an horrible medical experiment»
Жанр: ужасы, триллер, драма
Продолжительность: 01:31:57
Перевод: Любительский (двухголосый закадровый)
Оригинальная звуковая дорожка
Субтитры: Английские

Режиссёр: Том Сикс / Tom Six
Сценарист: Том Сикс
Продюсер: Илона Сикс , Том Сикс
В ролях: Дитер Лазер,Эшли Уильямс,Эшлинн Йенни,Акихиро Китамура,Андреас Леупольд,Питер Бланкенштейн,Bernd Kostrau,Рене Де Уит,Сильвия Зидек,Monica Iconica,
Описание: Две симпатичные американские девушки Линдсэй и Дженни путешествуют автомобилем по Европе. Однажды ночью на дороге где-то в лесах Германии они пробивают шины и в поисках помощи натыкаются на заброшенную виллу, хозяин которой накачивает их наркотиками и затягивает в самодельную больничную палату в подвале.

Утром девушки узнают, что они здесь не одни, а гостеприимный пожилой немец не кто иной, как доктор Хайтер, отставной хирург, всемирно известный эксперт по разделению сиамских близнецов. Но только на сей раз он собирается не разделять людей, а соединить их в «человеческую многоножку» с одной пищеварительной системой. И доктора совершенно не пугает тот факт, что в предыдущем его эксперименте «три собаки» погибли.
Изображение 3.382 голосов:647
Изображение
Качество: BDRip, 720p
Формат: MKV
Видео кодек: H264 (AVC)
Аудио кодек: AC3 (Dolby Digital)
Видео: MPEG4 Video (H264) 1920x1080 25.00fps ~ 9147 Kbps
Аудио #1: 48 kHz, AC3 Dolby Digital, 2/0 (L,R) ch, ~192 kbps [Любительский (двухголосый закадровый)]
Аудио #2: 48 kHz, DTS, 2/0 (L,R) ch, ~1510.00 kbps avg [Оригинальная звуковая дорожка]
Субтитры: Английские
Cкрытый текст
Изображение

Изображение

Изображение

Изображение

Изображение
Свернуть
Mi
Format : Matroska
File size : 6.67 GiB
Duration : 1h 28mn
Overall bit rate : 10.8 Mbps
Movie name : The.Human.Centipede.2009.LIMITED.1080p.BluRay.x264-AVCHD
Encoded date : UTC 2010-10-07 02:44:06
Writing application : mkvmerge v3.2.0 ('Beginnings') built on Feb 12 2010 16:46:17
Writing library : libebml v0.7.9 + libmatroska v0.8.1

Video
ID : 1
Format : AVC
Format/Info : Advanced Video Codec
Format profile : High@L4.1
Format settings, CABAC : Yes
Format settings, ReFrames : 4 frames
Format settings, GOP : M=4, N=25
Codec ID : V_MPEG4/ISO/AVC
Duration : 1h 28mn
Bit rate : 9 147 Kbps
Width : 1 920 pixels
Height : 1 080 pixels
Display aspect ratio : 16:9
Frame rate : 25.000 fps
Color space : YUV
Chroma subsampling : 4:2:0
Bit depth : 8 bits
Scan type : Progressive
Bits/(Pixel*Frame) : 0.176
Stream size : 5.49 GiB (82%)
Writing library : x264 core 105 r1724 b02df7b
Encoding settings : cabac=1 / ref=4 / deblock=1:0:0 / analyse=0x3:0x133 / me=umh / subme=7 / psy=1 / psy_rd=1.00:0.00 / mixed_ref=1 / me_range=16 / chroma_me=1 / trellis=1 / 8x8dct=1 / cqm=0 / deadzone=21,11 / fast_pskip=0 / chroma_qp_offset=-2 / threads=12 / sliced_threads=0 / nr=0 / decimate=1 / interlaced=0 / constrained_intra=0 / bframes=3 / b_pyramid=2 / b_adapt=1 / b_bias=0 / direct=1 / weightb=1 / open_gop=0 / weightp=2 / keyint=250 / keyint_min=25 / scenecut=40 / intra_refresh=0 / rc_lookahead=40 / rc=2pass / mbtree=1 / bitrate=9147 / ratetol=1.0 / qcomp=0.60 / qpmin=10 / qpmax=51 / qpstep=4 / cplxblur=20.0 / qblur=0.5 / ip_ratio=1.40 / aq=1:1.00
Language : English

Audio #1
ID : 2
Format : AC-3
Format/Info : Audio Coding 3
Mode extension : CM (complete main)
Codec ID : A_AC3
Duration : 1h 28mn
Bit rate mode : Constant
Bit rate : 192 Kbps
Channel(s) : 2 channels
Channel positions : Front: L R
Sampling rate : 48.0 KHz
Bit depth : 16 bits
Compression mode : Lossy
Stream size : 121 MiB (2%)
Title : двухголосый (электричка)
Language : Russian

Audio #2
ID : 3
Format : DTS
Format/Info : Digital Theater Systems
Codec ID : A_DTS
Duration : 1h 28mn
Bit rate mode : Constant
Bit rate : 1 510 Kbps
Channel(s) : 2 channels
Channel positions : Front: L R
Sampling rate : 48.0 KHz
Bit depth : 24 bits
Compression mode : Lossy
Stream size : 951 MiB (14%)

Text
ID : 4
Format : UTF-8
Codec ID : S_TEXT/UTF8
Codec ID/Info : UTF-8 Plain Text

Свернуть
_________________
Изображение
Не в сети
Профиль  
 Добавлено: 2011-06-11 19:47 (спустя 23 минуты)
Аватара пользователя
Стаж: 8 лет 3 месяца
Возраст: 43
Сообщений: 3290
Спасибок: 21012
Лайков: 3
:-D
_________________
Изображение
Не в сети
Профиль  
 Добавлено: 2011-06-11 20:35 (спустя 48 минут)
Музыкоед
Аватара пользователя
Стаж: 7 лет 4 месяца
Сообщений: 2111
Лайков: 466
Человеческая многожопка. Пожизненный кунилингус
Не в сети
Профиль  
 Добавлено: 2011-06-12 20:44 (спустя 1 день)
Стаж: 8 лет 6 месяцев
Сообщений: 264
Спасибок: 515
Лайков: 14
Рехнуться можно, на блюрее выпустили :st_ruskiy: Наверно реклама от Южного Парка сработала.
Не в сети
Профиль  
 Добавлено: 2011-07-08 12:10 (спустя 25 дней)
Стаж: 5 лет 10 месяцев
Сообщений: 280
Лайков: 8
с фантазией у режиссера все в порядке...фильм то сам отстой.....а вот эффект от многоножки перетягивает.....такое выдумать..до сих пор как вспомню-тошнит.
Не в сети
Профиль  
 Добавлено: 2011-10-12 14:05 (спустя 3 месяца 4 дня)
Стаж: 8 лет 5 месяцев
Сообщений: 45
он же из ГОЛАНДИИ!!!!! :-D :-D :-D :-D
накурился и вперед придумывать!!! ;;-))) ;;-)))
Не в сети
Профиль  
 Добавлено: 2014-03-04 19:31 (спустя 2 года 4 месяца)
Стаж: 4 года 2 месяца
Сообщений: 2
Встаньте на раздачу, пожалуйста! :)
Не в сети
Профиль  
 Добавлено: 2014-03-06 20:49 (спустя 2 дня 1 час)
Стаж: 8 лет 1 месяц
Сообщений: 22
Спасибок: 35
Изображение
Не в сети
Профиль  
Начать новую темуОтветить на тему  [ Сообщений: 8 ] 
Вы не можете начинать темы
Вы не можете отвечать на сообщения
Вы не можете редактировать свои сообщения
Вы не можете удалять свои сообщения