Правила форума

  • В этом разделе создание новых тем Запрещено.
  • Для создания новых тем пользуйтесь Корневым разделом DVD и HD фильмы.
Начать новую темуОтветить на тему  [ 1 сообщение ] 
Торрент файл
Размер: 5.14 GB • Зарегистрирован: 5 лет 2 месяца • Статус: Проверено
Скачан: 6 раз • Желающих скачать: 0 • Поблагодарили: 2 раза
 Раздают: 0  |  0 KB/s  ]   Качают: 0  |  0 KB/s  ] 
 Полного источника не было 3 года 2 месяца 
Сообщения
 Добавлено: 2011-10-01 20:39
Top-releaser
Стаж: 7 лет 4 месяца
Возраст: 33
Сообщений: 409
Спасибок: 6402
Лайков: 6
Человек без лица
The Man Without a Face
«A fatherless boy had almost given up all his dreams... until one man believed in him enough to make them come true.»

Изображение
Год выпуска: 1993
Страна: США
Жанр: драма
Перевод: Профессиональный (многоголосый)R5 + Авторский (Гаврилов Андрей) + Оригинал (R5)+ Оригинал (Blu-ray)

Режиссер: Мэл Гибсон (Mel Gibson)
Сценарий: Малкольм МакРари / Malcolm MacRury, Изабелль Холлэнд / Isabelle Holland
Продюсер: Далиса Коэн / Dalisa Cohen, Брюс Дэвей / Bruce Davey, Дональд Гинсберг / Donald Ginsberg, Стефен МакЭвети / Stephen McEveety, Боб Шульц / Bob Schulz
Оператор: Доналд МакЭлпайн / Donald McAlpine
Композитор: Джеймс Хорнер / James Horner

В ролях: Мэл Гибсон (Justin McLeod), Ник Стал (Charles E. 'Chuck' Norstadt), Маргарет Уиттон (Catherine Palin), Фэй Мастерсон (Gloria Norstadt), Габи Хоффманн (Megan Norstadt), Джеффри Льюис (Chief Wayne Stark), Ричард Мейсер (Prof. Carl Hartley), Майкл ДеЛуис (Douglas Hall, Gloria's Boyfriend), Итэн Филлипс (Todd Lansing), Джин Де Баэр (Mrs. Lansing), Jack De Mave (Mr. Cooper), Вива (Mrs. Cooper)

Описание: Ненавистная жизнь с матерью и двумя сестрами от разных отцов сделала 12-летнего Чака циником и нахалом. Но однажды он знакомится с Дастином Маклаудом - таинственным отшельником с обезображенным лицом, о котором ходят самые невероятные слухи. И оказалось, что не все еще потеряно для обоих.


Рейтинг
kinopoisk.RU: 7.864 (2 103)
Imdb.com: 6.50 (13 559)
Mpaa: Изображение


Качество: BDRip 720p
Формат: MKV
Видео: AVC; 1276x720 (16:9); 5100 Kbps; 24 fps; 0,231 bpp
Аудио 1: Rus; AC3; 384 Kbps; CBR; 6 ch - MVO
Аудио 2: Rus; AC3; 192 Kbps; CBR; 2 ch - Гаврилов
Аудио 3: Eng; AC3; 384 Kbps; CBR; 6 ch - Eng (R5)
Аудио 4: Eng; AC3; 224 Kbps; CBR; 2 ch - Eng (Blu-ray)
Субтитры : Russian

Релиз: Изображение
Доп.Информация
Цитата
Сохранены оригинальные чаптеры как на Blu-ray.
Фильм снят со звуком 2.0.
Свернуть
Mediainfo
General
Unique ID : 216175463742803121689477842124471413335 (0xA2A1E1403C4AB5FBBE36B8D5589A2A57)
Complete name : D:\uTorrent\The.Man.Without.a.Face.1993.720p.BluRay.2xRus.Eng.HDCLUB.mkv
Format : Matroska
Format version : Version 2
File size : 5.14 GiB
Duration : 1h 54mn
Overall bit rate : 6 412 Kbps
Movie name : The Man Without a Face (1993) - Release for HDCLUB
Encoded date : UTC 2011-10-01 15:36:02
Writing application : mkvmerge v3.4.0 ('Rapunzel') built on May 15 2010 09:38:20
Writing library : libebml v0.8.0 + libmatroska v0.9.0

Video
ID : 1
Format : AVC
Format/Info : Advanced Video Codec
Format profile : High@L4.1
Format settings, CABAC : Yes
Format settings, ReFrames : 9 frames
Format settings, GOP : M=9, N=34
Codec ID : V_MPEG4/ISO/AVC
Duration : 1h 54mn
Bit rate : 5 230 Kbps
Width : 1 276 pixels
Height : 720 pixels
Display aspect ratio : 16:9
Frame rate : 24.000 fps
Color space : YUV
Chroma subsampling : 4:2:0
Bit depth : 8 bits
Scan type : Progressive
Bits/(Pixel*Frame) : 0.237
Stream size : 4.09 GiB (80%)
Title : Release for HDCLUB
Writing library : x264 core 118 r2085 8a62835
Encoding settings : cabac=1 / ref=9 / deblock=1:-3:-3 / analyse=0x3:0x133 / me=umh / subme=11 / psy=1 / psy_rd=0.90:0.15 / mixed_ref=1 / me_range=64 / chroma_me=1 / trellis=2 / 8x8dct=1 / cqm=0 / deadzone=21,11 / fast_pskip=0 / chroma_qp_offset=-3 / threads=12 / sliced_threads=0 / nr=0 / decimate=0 / interlaced=0 / bluray_compat=0 / constrained_intra=0 / bframes=8 / b_pyramid=2 / b_adapt=2 / b_bias=0 / direct=3 / weightb=1 / open_gop=0 / weightp=2 / keyint=250 / keyint_min=24 / scenecut=40 / intra_refresh=0 / rc_lookahead=40 / rc=2pass / mbtree=0 / bitrate=5230 / ratetol=1.0 / qcomp=0.60 / qpmin=0 / qpmax=69 / qpstep=4 / cplxblur=20.0 / qblur=0.5 / vbv_maxrate=50000 / vbv_bufsize=62500 / nal_hrd=none / ip_ratio=1.40 / pb_ratio=1.30 / aq=1:0.80
Language : English
Color primaries : BT.709-5, BT.1361, IEC 61966-2-4, SMPTE RP177
Transfer characteristics : BT.709-5, BT.1361
Matrix coefficients : BT.709-5, BT.1361, IEC 61966-2-4 709, SMPTE RP177

Audio #1
ID : 2
Format : AC-3
Format/Info : Audio Coding 3
Mode extension : CM (complete main)
Codec ID : A_AC3
Duration : 1h 54mn
Bit rate mode : Constant
Bit rate : 384 Kbps
Channel(s) : 6 channels
Channel positions : Front: L C R, Side: L R, LFE
Sampling rate : 48.0 KHz
Bit depth : 16 bits
Compression mode : Lossy
Stream size : 315 MiB (6%)
Title : AC3 5.1 @ 384 kbps
Language : Russian

Audio #2
ID : 3
Format : AC-3
Format/Info : Audio Coding 3
Mode extension : CM (complete main)
Codec ID : A_AC3
Duration : 1h 54mn
Bit rate mode : Constant
Bit rate : 192 Kbps
Channel(s) : 2 channels
Channel positions : Front: L R
Sampling rate : 48.0 KHz
Bit depth : 16 bits
Compression mode : Lossy
Stream size : 158 MiB (3%)
Title : AC3 2.0 @ 192 kbps - Одноголосый закадровый, А. Гаврилов
Language : Russian

Audio #3
ID : 4
Format : AC-3
Format/Info : Audio Coding 3
Mode extension : CM (complete main)
Codec ID : A_AC3
Duration : 1h 54mn
Bit rate mode : Constant
Bit rate : 384 Kbps
Channel(s) : 6 channels
Channel positions : Front: L C R, Side: L R, LFE
Sampling rate : 48.0 KHz
Bit depth : 16 bits
Compression mode : Lossy
Stream size : 315 MiB (6%)
Title : AC3 5.1 @ 384 kbps - R5
Language : English

Audio #4
ID : 5
Format : AC-3
Format/Info : Audio Coding 3
Mode extension : CM (complete main)
Codec ID : A_AC3
Duration : 1h 54mn
Bit rate mode : Constant
Bit rate : 224 Kbps
Channel(s) : 2 channels
Channel positions : Front: L R
Sampling rate : 48.0 KHz
Bit depth : 16 bits
Compression mode : Lossy
Stream size : 184 MiB (3%)
Title : AC3 2.0 @ 224 kbps - Blu-ray
Language : English

Text
ID : 6
Format : UTF-8
Codec ID : S_TEXT/UTF8
Codec ID/Info : UTF-8 Plain Text
Language : Russian

Menu
00:00:00.000 : en:00:00:00.000
00:11:59.458 : en:00:11:59.458
00:24:51.708 : en:00:24:51.708
00:42:09.875 : en:00:42:09.875
00:54:38.042 : en:00:54:38.042
01:08:15.667 : en:01:08:15.667
01:22:40.000 : en:01:22:40.000
01:38:40.333 : en:01:38:40.333

Свернуть
"Знаете ли Вы, что..."
  • В основу фильма положен одноименный роман швейцарской писательницы Изабель Холланд. Но если герой ее книги был гомосексуалистом, то в киноверсии он стал просто одиноким непонятым человеком.
  • Мэл Гибсон принял решение самому сыграть роль Джастина МакЛеода лишь после того как не смог найти подходящую кандидатуру среди других актёров, которые один за другим отклоняли предложение. Отчасти это было также вызвано сложностями с финансированием проекта.
  • Фильм стал режиссёрским дебютом Мэла Гибсона и первой ролью на большом экране для 12-летнего Ника Стала.
  • Поэма о самолетах, которую герой Мэла Гибсона даёт почитать Чаку - это «High Flight» («Высокий полёт») американского поэта и лётчика Джона Гиллеспи.
  • Сцена, где Чак и Джастин стоят высоко на горе, наблюдая за водой, была снята на горе Брэдбери, в штате Мэн. Из-за резко обрывающего к воде склона на протяжении многих лет этот участок охраняла защитная изгородь, которая на период съёмок была снята, а затем возвращена на своё место.
  • Съёмочный период: 3 августа – 9 октября 1992 года.
  • Мастерский специальный грим, превративший половину лица Мела Гибсона в один сплошной чудовищный ожог, создал один из величайших американских мастеров гримэффектов - Грег Кэнном.
Свернуть
Скриншоты
Изображение

Изображение

Изображение
Свернуть
Не в сети
Профиль  
Начать новую темуОтветить на тему  [ 1 сообщение ] 
Вы не можете начинать темы
Вы не можете отвечать на сообщения
Вы не можете редактировать свои сообщения
Вы не можете удалять свои сообщения