Правила форума

  • В этом разделе создание новых тем Запрещено.
  • Для создания новых тем пользуйтесь Корневым разделом DVD и HD фильмы.
Начать новую темуОтветить на тему  [ Сообщений: 9 ] 
Торрент файл
Размер: 8.39 GB • Зарегистрирован: 3 года 1 месяц • Статус: Проверено
Скачан: 217 раз • Желающих скачать: 0 • Поблагодарили: 54 раза
 Раздают: 0  |  0 KB/s  ]   Качают: 0  |  0 KB/s  ] 
 Полного источника не было 1 час 9 минут 
Сообщения
 Добавлено: 2013-10-18 22:24
DVD Release Group
Аватара пользователя
Стаж: 7 лет 1 месяц
Сообщений: 3548
Спасибок: 247034
Лайков: 1018
Человек из стали

Man of Steel


Изображение


Год выпуска: 2013
Страна: США, Канада, Великобритания
Жанр: Фантастика, фэнтези, боевик, приключения
Продолжительность: 02:23:02
Перевод: Профессиональный (полное дублирование)
Режиссер: Зак Снайдер
В ролях: Генри Кавилл, Эми Адамс, Майкл Шеннон, Кевин Костнер, Дайан Лэйн, Лоренс Фишбёрн, Антье Трое, Айелет Зурер, Рассел Кроу, Гарри Дж. Ленникс
Описание: Кларк Кент/Кал-Эл — молодой журналист, который чувствует себя чужаком из-за своей невероятной силы. Много лет назад он был отправлен на Землю с развитой планеты Криптон, и теперь задается вопросом: зачем? Воспитанный приемными родителями Мартой и Джонатаном Кентами, Кларк знает: обладать сверхспособностями — значит принимать сложные решения. Но когда человечество более всего нуждается в стабильности, оно подвергается нападению. Сможет ли герой восстановить мир, или воспользуется своей силой для того, чтобы окончательно его разрушить? Кларк должен стать супергероем известным как «Супермен», чтобы вселять надежду в сердца людей и защищать тех, кого он любит.
Изображение
Качество: BDRip 720p
Формат: MKV
Видео кодек: H.264
Аудио кодек: AC3, DTS
Видео: 1280x534 23.98fps 6442kbps
Аудио:
Аудио Rus: AC3 48kHz 6ch 448kbps
Аудио Eng: DTS 48kHz 6ch 1510kbps
"MediaInfo"
Формат : Matroska
Версия формата : Version 2
Размер файла : 8,39 Гбайт
Продолжительность : 2 ч. 23 м.
Общий поток : 8395 Кбит/сек
Дата кодирования : UTC 2013-10-18 16:35:57
Программа кодирования : mkvmerge v6.3.0 ('You can't stop me!') built on Jun 28 2013 20:09:41
Библиотека кодирования : libebml v1.3.0 + libmatroska v1.4.0

Видео
Идентификатор : 1
Формат : AVC
Формат/Информация : Advanced Video Codec
Профиль формата : High@L4.1
Параметр CABAC формата : Да
Параметр ReFrames формата : 12 кадров
Идентификатор кодека : V_MPEG4/ISO/AVC
Продолжительность : 2 ч. 23 м.
Битрейт : 6442 Кбит/сек
Ширина : 1280 пикселей
Высота : 534 пикселя
Соотношение сторон : 2,40:1
Частота кадров : 23,976 кадра/сек
Цветовое пространство : YUV
Субдискретизация насыщенности : 4:2:0
Битовая глубина : 8 бит
Тип развёртки : Прогрессивная
Бит/(Пиксели*Кадры) : 0.393
Размер потока : 6,27 Гбайт (75%)
Библиотека кодирования : x264 core 129 r2245+704+36 8e61944 tMod+MixAQ [8-bit@4:2:0 X86_64]
Настройки программы : cabac=1 / ref=12 / deblock=1:-3:-3 / analyse=0x3:0x133 / me=umh / subme=11 / psy=1 / fade_compensate=0.00 / psy_rd=1.05:0.10 / mixed_ref=1 / me_range=32 / chroma_me=1 / trellis=2 / 8x8dct=1 / cqm=0 / deadzone=21,11 / fast_pskip=0 / chroma_qp_offset=-3 / threads=18 / lookahead_threads=3 / sliced_threads=0 / nr=0 / decimate=0 / interlaced=0 / bluray_compat=0 / constrained_intra=0 / fgo=0 / bframes=8 / b_pyramid=2 / b_adapt=2 / b_bias=0 / direct=3 / weightb=1 / open_gop=0 / weightp=2 / keyint=250 / keyint_min=23 / scenecut=40 / intra_refresh=0 / rc_lookahead=80 / rc=2pass / mbtree=1 / bitrate=6442 / ratetol=1.0 / qcomp=0.70 / qpmin=0 / qpmax=69 / qpstep=4 / cplxblur=20.0 / qblur=0.5 / ip_ratio=1.40 / aq=3 / aq-strength=0.80 / aq-sensitivity=10.00 / aq-ifactor=1.00 / aq-pfactor=1.00 / aq-bfactor=1.00 / aq2=0
Язык : English
Default : Да
Forced : Нет

Аудио #1
Идентификатор : 2
Формат : AC-3
Формат/Информация : Audio Coding 3
Расширение режима : CM (complete main)
Идентификатор кодека : A_AC3
Продолжительность : 2 ч. 23 м.
Вид битрейта : Постоянный
Битрейт : 448 Кбит/сек
Каналы : 6 каналов
Расположение каналов : Front: L C R, Side: L R, LFE
Частота : 48,0 КГц
Битовая глубина : 16 бит
Метод сжатия : С потерями
Размер потока : 458 Мбайт (5%)
Язык : Russian
Default : Да
Forced : Нет

Аудио #2
Идентификатор : 3
Формат : DTS
Формат/Информация : Digital Theater Systems
Идентификатор кодека : A_DTS
Продолжительность : 2 ч. 23 м.
Вид битрейта : Постоянный
Битрейт : 1510 Кбит/сек
Каналы : 6 каналов
Расположение каналов : Front: L C R, Side: L R, LFE
Частота : 48,0 КГц
Битовая глубина : 24 бит
Метод сжатия : С потерями
Размер потока : 1,51 Гбайт (18%)
Язык : English
Default : Нет
Forced : Нет

Меню
00:00:00.000 : en:00:00:00.000
00:11:16.967 : en:00:11:16.967
00:20:01.450 : en:00:20:01.450
00:30:09.474 : en:00:30:09.474
00:39:21.609 : en:00:39:21.609
00:48:57.643 : en:00:48:57.643
00:59:03.414 : en:00:59:03.414
01:08:57.883 : en:01:08:57.883
01:17:35.108 : en:01:17:35.108
01:28:36.185 : en:01:28:36.185
01:40:47.791 : en:01:40:47.791
01:50:55.857 : en:01:50:55.857
02:00:53.579 : en:02:00:53.579
02:10:13.555 : en:02:10:13.555
02:12:49.920 : en:02:12:49.920
Свернуть

"Скриншоты"
Изображение
Изображение
Изображение
Изображение
Изображение
Изображение
Изображение
Изображение
Свернуть

Раздача группы:
Изображение
В сети
Профиль  
 Добавлено: 2013-10-18 23:00 (спустя 35 минут)
Аватара пользователя
Стаж: 8 лет
Сообщений: 1390
Спасибок: 39
Лайков: 64
rastor
о, красава, думал не дождусь сёня :co_ol:
Не в сети
Профиль  
 Добавлено: 2013-10-19 18:17 (спустя 19 часов)
Аватара пользователя
Стаж: 7 лет 8 месяцев
Сообщений: 136
Лайков: 1
Подскажите пожалуйста, тут есть черные полоски сверху и снизу?
Не в сети
Профиль  
 Добавлено: 2013-10-19 18:22 (спустя 5 минут)
DVD Release Group
Аватара пользователя
Стаж: 7 лет 1 месяц
Сообщений: 3548
Спасибок: 247034
Лайков: 1018
BOMBA777
Да есть.
В сети
Профиль  
 Добавлено: 2013-10-20 00:27 (спустя 6 часов)
Аватара пользователя
Стаж: 7 лет 8 месяцев
Сообщений: 136
Лайков: 1
rastor, а подскажи пожалуйста можно найти этот фильм без полосок черных этот фильм?, или раздача где 1920x800,там тоже они присутствуют? :ne_znayu:
Не в сети
Профиль  
 Добавлено: 2013-10-20 17:59 (спустя 17 часов)
Аватара пользователя
Стаж: 9 лет
Сообщений: 1076
Спасибок: 3261
Лайков: 10
Вроде и Нолан и Снайдер, а самый адекватный и мотивированный персонаж - Зод.
_________________
Наша цель — победа! Расчетливо нанести удар в спину и втоптать противников е***щем в грязищу!
Не в сети
Профиль  
 Добавлено: 2013-10-24 20:01 (спустя 4 дня)
Аватара пользователя
Стаж: 8 лет
Сообщений: 1390
Спасибок: 39
Лайков: 64

BOMBA777:

rastor, а подскажи пожалуйста можно найти этот фильм без полосок черных этот фильм?, или раздача где 1920x800,там тоже они присутствуют? :ne_znayu:
там перламутровые полосы...
Не в сети
Профиль  
 Добавлено: 2013-10-25 00:38 (спустя 4 часа)
Аватара пользователя
Стаж: 6 лет 9 месяцев
Сообщений: 922
яркий, красочный, спецэффекты на высоте.
Cкрытый текст
почему зод не убил отца до отправления и почему второй боец не выстрелил?
почему все крипотонеане великая раса не сбежала с погибающей планеты?
почему у него такой пафосный костюм отличающий от доспех воинов славного криптона?
Почему папашка супермена не предложил использовать корабль матку по прямому предназначению и восстановить расу криптонцев? криптян?
почему приемный отец знаю что сынка не убить отправил последнего под мост?
что за х? в атмосфере земли супер герой. в атмосфере криптона обычный смертный. в безвоздушном пространстве снова супер герой???
почему супермен отказался от здравого предложение зода и уничтожил корабль инкубатор?
почему черная дыра не затянула землю? луну? солнце?
они мутузились минут 10. уничтожили друг другом полгорода. сбили спутник... а потом... супермен просто свернул шею зоду...
почему у главного злодея нет телефона NOKIA?
супермен наворотил столько дел... и вау... одел очки... и его никто не узнает...
Свернуть
Не в сети
Профиль  
 Добавлено: 2014-11-20 16:31 (спустя 1 год)
Аватара пользователя
Стаж: 2 года
Сообщений: 1
это самый лучший фильм про супермена
_________________
Страх - пустая трата времени.
Не в сети
Профиль  
Начать новую темуОтветить на тему  [ Сообщений: 9 ] 
Вы не можете начинать темы
Вы не можете отвечать на сообщения
Вы не можете редактировать свои сообщения
Вы не можете удалять свои сообщения