Правила форума

  • В этом разделе создание новых тем Запрещено.
  • Для создания новых тем пользуйтесь Корневым разделом DVD и HD фильмы.
Начать новую темуОтветить на тему  [ Сообщений: 9 ] 
Торрент файл
Размер: 9.06 GB • Зарегистрирован: 1 год • Статус: Проверено
Скачан: 1053 раза • Желающих скачать: 0 • Поблагодарили: 204 раза
 Раздают: 10  |  0 KB/s  ]   Качают: 0  |  0 KB/s  ] 
Сообщения
 Добавлено: 2015-11-19 14:56
DVD Release Group
Аватара пользователя
Стаж: 7 лет 1 месяц
Сообщений: 3558
Спасибок: 247239
Лайков: 1018
Человек-муравей

Ant-Man


Изображение


Год выпуска: 2015
Страна: США
Жанр: Фантастика, боевик, комедия, приключения
Продолжительность: 01:57:06
Перевод: Профессиональный (полное дублирование)
Режиссер: Пейтон Рид
В ролях: Пол Радд, Майкл Дуглас, Эванджелин Лилли, Кори Столл, Майкл Пенья, Бобби, Каннавале, Ти-Ай, Давид Дастмалчян, Эбби Райдер Фортсон, Джуди Грир
Описание: Вооружившись удивительной способностью уменьшаться в размере, но обладать при этом большой силой, мошенник Скотт Лэнг должен стать героем и помочь своему наставнику, доктору Хэнку Пиму, сохранить в тайне существование костюма Человека-муравья от угроз нового поколения.
Изображение
Качество: BDRip 1080p
Формат: MKV
Видео кодек: H.264
Аудио кодек: AC3, DTS
Видео: 1920x1040 23.98fps 9181kbps
Аудио:
Аудио Rus: AC3 48kHz 6ch 384kbps
Аудио Eng: DTS 48kHz 6ch 1510kbps
"MediaInfo"
Формат : Matroska
Версия формата : Version 2
Размер файла : 9,06 Гбайт
Продолжительность : 1 ч. 57 м.
Общий поток : 11,1 Мбит/сек
Дата кодирования : UTC 2015-11-19 06:24:20
Программа кодирования : mkvmerge v8.3.0 ('Over the Horizon') 64bit
Библиотека кодирования : libebml v1.3.1 + libmatroska v1.4.2
DURATION : 01:57:06.646000000
NUMBER_OF_FRAMES : 658748
NUMBER_OF_BYTES : 1325400976
_STATISTICS_WRITING_APP : mkvmerge v8.3.0 ('Over the Horizon') 64bit
_STATISTICS_WRITING_DATE_UTC : 2015-11-19 06:24:20
_STATISTICS_TAGS : BPS DURATION NUMBER_OF_FRAMES NUMBER_OF_BYTES

Видео
Идентификатор : 2
Формат : AVC
Формат/Информация : Advanced Video Codec
Профиль формата : High@L4.1
Параметр CABAC формата : Да
Параметр ReFrames формата : 4 кадра
Идентификатор кодека : V_MPEG4/ISO/AVC
Продолжительность : 1 ч. 57 м.
Битрейт : 9181 Кбит/сек
Ширина : 1920 пикселей
Высота : 1040 пикселей
Соотношение сторон : 1,85:1
Режим частоты кадров : Постоянный
Частота кадров : 23,976 кадра/сек
Цветовое пространство : YUV
Субдискретизация насыщенности : 4:2:0
Битовая глубина : 8 бит
Тип развёртки : Прогрессивная
Бит/(Пиксели*Кадры) : 0.192
Размер потока : 7,33 Гбайт (81%)
Библиотека кодирования : x264 core 148 r2638 7599210
Настройки программы : cabac=1 / ref=4 / deblock=1:0:0 / analyse=0x3:0x133 / me=umh / subme=7 / psy=1 / psy_rd=1.00:0.00 / mixed_ref=1 / me_range=16 / chroma_me=1 / trellis=1 / 8x8dct=1 / cqm=0 / deadzone=21,11 / fast_pskip=0 / chroma_qp_offset=-2 / threads=12 / lookahead_threads=2 / sliced_threads=0 / nr=0 / decimate=1 / interlaced=0 / bluray_compat=0 / constrained_intra=0 / bframes=3 / b_pyramid=2 / b_adapt=1 / b_bias=0 / direct=1 / weightb=1 / open_gop=0 / weightp=2 / keyint=250 / keyint_min=23 / scenecut=40 / intra_refresh=0 / rc_lookahead=40 / rc=2pass / mbtree=1 / bitrate=9181 / ratetol=1.0 / qcomp=0.60 / qpmin=0 / qpmax=69 / qpstep=4 / cplxblur=20.0 / qblur=0.5 / ip_ratio=1.40 / aq=1:1.00
Язык : English
Default : Да
Forced : Нет

Аудио #1
Идентификатор : 1
Формат : AC-3
Формат/Информация : Audio Coding 3
Расширение режима : CM (complete main)
Параметр Endianness формата : Big
Идентификатор кодека : A_AC3
Продолжительность : 1 ч. 57 м.
Вид битрейта : Постоянный
Битрейт : 384 Кбит/сек
Каналы : 6 каналов
Расположение каналов : Front: L C R, Side: L R, LFE
Частота : 48,0 КГц
Битовая глубина : 16 бит
Метод сжатия : С потерями
Размер потока : 322 Мбайт (3%)
Язык : Russian
Default : Да
Forced : Нет
DURATION : 01:57:06.614000000
NUMBER_OF_FRAMES : 168470
NUMBER_OF_BYTES : 8063488175
_STATISTICS_WRITING_APP : mkvmerge v8.3.0 ('Over the Horizon') 64bit
_STATISTICS_WRITING_DATE_UTC : 2015-11-19 06:24:20
_STATISTICS_TAGS : BPS DURATION NUMBER_OF_FRAMES NUMBER_OF_BYTES

Аудио #2
Идентификатор : 3
Формат : DTS
Формат/Информация : Digital Theater Systems
Режим : 16
Параметр Endianness формата : Big
Идентификатор кодека : A_DTS
Продолжительность : 1 ч. 57 м.
Вид битрейта : Постоянный
Битрейт : 1509 Кбит/сек
Каналы : 6 каналов
Расположение каналов : Front: L C R, Side: L R, LFE
Частота : 48,0 КГц
Битовая глубина : 24 бит
Метод сжатия : С потерями
Размер потока : 1,24 Гбайт (14%)
Язык : English
Default : Нет
Forced : Нет

Меню
00:00:00.000 : en:00:00:00.000
00:02:08.837 : en:00:02:08.837
00:08:40.186 : en:00:08:40.186
00:15:24.841 : en:00:15:24.841
00:19:59.740 : en:00:19:59.740
00:27:50.210 : en:00:27:50.210
00:33:07.235 : en:00:33:07.235
00:38:53.957 : en:00:38:53.957
00:44:36.465 : en:00:44:36.465
00:49:22.459 : en:00:49:22.459
00:57:44.252 : en:00:57:44.252
01:00:48.812 : en:01:00:48.812
01:06:31.529 : en:01:06:31.529
01:23:21.288 : en:01:23:21.288
01:34:20.530 : en:01:34:20.530
01:47:34.239 : en:01:47:34.239
Свернуть

"Скриншоты"
Изображение
Изображение
Изображение
Свернуть
 Vaginalus и dVision нравится это.
В сети
Профиль  
 Добавлено: 2015-11-19 20:52 (спустя 5 часов)
Top-seeder
Аватара пользователя
Стаж: 7 лет 6 месяцев
Возраст: 27
Сообщений: 2421
Спасибок: 455
Лайков: 14
rastor
лучший ,качаем !
спасибо !
Не в сети
Профиль  
 Добавлено: 2015-11-21 19:26 (спустя 1 день 22 часа)
Top-seeder
Аватара пользователя
Стаж: 7 лет 6 месяцев
Возраст: 27
Сообщений: 2421
Спасибок: 455
Лайков: 14
мне понравилось кинцо :)
что то свежее прям ,муравьи :ya_hoo_oo:
Не в сети
Профиль  
 Добавлено: 2015-11-22 13:14 (спустя 17 часов)
Аватара пользователя
Стаж: 8 лет 11 месяцев
Сообщений: 515
Спасибок: 39
Лайков: 49
Отлично, теперь ждём выхода человека-блохи, человека клопа, и человека-вши ;;-))) ;;-))) ;;-)))
 Vazilin4ik нравится это.
Не в сети
Профиль  
 Добавлено: 2015-11-22 20:14 (спустя 6 часов)
Аватара пользователя
Стаж: 8 лет 3 месяца
Возраст: 33
Сообщений: 319
Спасибок: 602
Лайков: 34
Ага, а приквел или сиквел как обзовут человек ман.овошка? :-D
Не в сети
Профиль  
 Добавлено: 2015-11-23 18:44 (спустя 22 часа)
Стаж: 8 лет 7 месяцев
Сообщений: 46
Фильм реально порадовал ))))
Не в сети
Профиль  
 Добавлено: 2015-11-24 11:36 (спустя 16 часов)
Аватара пользователя
Стаж: 8 лет 3 месяца
Возраст: 33
Сообщений: 319
Спасибок: 602
Лайков: 34
Фильм очень порадовал, не понял один момент, может кто подскажет: как лысый чел в вертолёте смог залезть в костюм жёлтого шершня, ведь если я не ошибаюсь вся соль и была в том, что он не мог уменьшить живую материю, а технологию Пима ещё не захватил.
Или он уменьшать живую материю не мог, а костюм просто снова увеличил (я думаю изначально его создали обычного размера и потом уменьшили) и туда залез? :du_ma_et:
Не в сети
Профиль  
 Добавлено: 2015-11-24 17:36 (спустя 5 часов)
Аватара пользователя
Стаж: 9 лет 1 месяц
Возраст: 36
Сообщений: 195
Спасибок: 20
Лайков: 8
На руторе уже 3д есть....
Не в сети
Профиль  
 Добавлено: 2016-04-23 19:44 (спустя 4 месяца 29 дней)
Стаж: 6 лет 7 месяцев
Сообщений: 44
Лайков: 6
На удивление хорошее кино, как и "Зелёный шершень". Не тупое месилово спецэфектов.
Не в сети
Профиль  
Начать новую темуОтветить на тему  [ Сообщений: 9 ] 
Вы не можете начинать темы
Вы не можете отвечать на сообщения
Вы не можете редактировать свои сообщения
Вы не можете удалять свои сообщения