Правила форума

  • В этом разделе создание новых тем Запрещено.
  • Для создания новых тем пользуйтесь Корневым разделом DVD и HD фильмы.
Начать новую темуОтветить на тему  [ Сообщений: 4 ] 
Торрент файл
Размер: 7.18 GB • Зарегистрирован: 2 года • Статус: Проверено
Скачан: 9 раз • Желающих скачать: 0 • Поблагодарили: 4 раза
 Раздают: 0  |  0 KB/s  ]   Качают: 0  |  0 KB/s  ] 
 Полного источника не было 1 день 2 часа 
Сообщения
 Добавлено: 2014-11-21 17:30
RG-ELEKTRO
Аватара пользователя
Стаж: 2 года 3 месяца
Сообщений: 7928
Спасибок: 53736
Лайков: 3304
Человек ноября / The November Man


Изображение

Страна: США
Год выхода: 2014
Жанр: боевик, триллер, криминал
Продолжительность: 01:48:17
Перевод: Профессиональный (дублированный)
Субтитры: eng, rus

Режиссер: Роджер Дональдсон / Roger Donaldson

В ролях: Пирс Броснан, Люк Брейси, Ольга Куриленко, Билл Смитрович, Амила Терзимехик, Лазар Ристовски, Медиха Муслиович, Элайза Тейлор, Катерина Скорсоне, Аки Котабе

О фильме:
Экс-агент ЦРУ, невольно вернувшись в дело, оказывается в эпицентре международной интриги, затеянной главами разведывательного управления. В их планах — внедрение во внутреннюю политику стран Восточной Европы через кандидата в президенты РФ с помощью шантажа грязным прошлым. На его совести — вторая вспышка войны на Северном Кавказе, жертвы, насилие. Но Питер Дэверо разгадывает тайны нечестной игры…

ИзображениеИзображение

Формат: MKV
Качество: BDRip 720p
Видео: MPEG-4 AVC, 6281 Кбит/с, 1280x534, 23,976 fps
Звук:
Аудио: Rus, DTS, 1510 kb/s (6 ch), 48 kHz
Аудио 2: Eng, DTS, 1510 kb/s (6 ch), 48 kHz


"MediaInfo"
Format : Matroska
Format version : Version 4 / Version 2
File size : 7.18 GiB
Duration : 1h 48mn
Overall bit rate : 9 488 Kbps
Movie name : Tonik
Encoded date : UTC 2014-11-21 03:34:17
Writing application : mkvmerge v7.1.0 ('Good Love') 64bit built on Jul 27 2014 13:06:55
Writing library : libebml v1.3.0 + libmatroska v1.4.1
_STATISTICS_WRITING_APP : mkvmerge v7.1.0 ('Good Love') 64bit built on Jul 27 2014 13:06:55
_STATISTICS_WRITING_DATE_UTC : 2014-11-21 03:34:17
_STATISTICS_TAGS : BPS DURATION NUMBER_OF_FRAMES NUMBER_OF_BYTES
DURATION : 01:47:24.646000000
NUMBER_OF_FRAMES : 1140
NUMBER_OF_BYTES : 34716

Video
ID : 1
Format : AVC
Format/Info : Advanced Video Codec
Format profile : High@L4.1
Format settings, CABAC : Yes
Format settings, ReFrames : 12 frames
Codec ID : V_MPEG4/ISO/AVC
Duration : 1h 48mn
Bit rate : 6 281 Kbps
Width : 1 280 pixels
Height : 534 pixels
Display aspect ratio : 2.40:1
Frame rate mode : Constant
Frame rate : 23.976 fps
Color space : YUV
Chroma subsampling : 4:2:0
Bit depth : 8 bits
Scan type : Progressive
Bits/(Pixel*Frame) : 0.383
Stream size : 4.75 GiB (66%)
Writing library : x264 core 129 r2230 1cffe9f
Encoding settings : cabac=1 / ref=12 / deblock=1:-3:-3 / analyse=0x3:0x113 / me=umh / subme=10 / psy=1 / psy_rd=0.90:0.05 / mixed_ref=1 / me_range=32 / chroma_me=1 / trellis=2 / 8x8dct=1 / cqm=0 / deadzone=21,11 / fast_pskip=0 / chroma_qp_offset=-3 / threads=36 / lookahead_threads=6 / sliced_threads=0 / nr=0 / decimate=0 / interlaced=0 / bluray_compat=0 / constrained_intra=0 / bframes=9 / b_pyramid=2 / b_adapt=2 / b_bias=0 / direct=3 / weightb=1 / open_gop=0 / weightp=2 / keyint=240 / keyint_min=24 / scenecut=40 / intra_refresh=0 / rc_lookahead=40 / rc=crf / mbtree=0 / crf=17.0 / qcomp=0.70 / qpmin=0 / qpmax=69 / qpstep=4 / vbv_maxrate=40000 / vbv_bufsize=30000 / crf_max=0.0 / nal_hrd=none / ip_ratio=1.25 / pb_ratio=1.20 / aq=1:0.85
Language : English
Default : Yes
Forced : No
_STATISTICS_WRITING_APP : mkvmerge v7.1.0 ('Good Love') 64bit built on Jul 27 2014 13:06:55
_STATISTICS_WRITING_DATE_UTC : 2014-11-21 03:34:17
_STATISTICS_TAGS : BPS DURATION NUMBER_OF_FRAMES NUMBER_OF_BYTES
DURATION : 01:48:21.537000000
NUMBER_OF_FRAMES : 155881
NUMBER_OF_BYTES : 5255681243

Audio #1
ID : 2
Format : DTS
Format/Info : Digital Theater Systems
Mode : 16
Format settings, Endianness : Big
Codec ID : A_DTS
Duration : 1h 48mn
Bit rate mode : Constant
Bit rate : 1 509 Kbps
Channel(s) : 6 channels
Channel positions : Front: L C R, Side: L R, LFE
Sampling rate : 48.0 KHz
Bit depth : 16 bits
Compression mode : Lossy
Stream size : 1.14 GiB (16%)
Language : Russian
Default : Yes
Forced : No

Audio #2
ID : 3
Format : DTS
Format/Info : Digital Theater Systems
Mode : 16
Format settings, Endianness : Big
Codec ID : A_DTS
Duration : 1h 48mn
Bit rate mode : Constant
Bit rate : 1 509 Kbps
Channel(s) : 6 channels
Channel positions : Front: L C R, Side: L R, LFE
Sampling rate : 48.0 KHz
Bit depth : 24 bits
Compression mode : Lossy
Stream size : 1.14 GiB (16%)
Language : English
Default : No
Forced : No

Text
ID : 4
Format : UTF-8
Codec ID : S_TEXT/UTF8
Codec ID/Info : UTF-8 Plain Text
Language : English
Default : No
Forced : No

Menu
00:00:00.000 : en:Chapter 1
00:05:37.379 : en:Chapter 2
00:08:16.538 : en:Chapter 3
00:11:00.368 : en:Chapter 4
00:16:43.670 : en:Chapter 5
00:20:16.215 : en:Chapter 6
00:23:32.829 : en:Chapter 7
00:25:50.925 : en:Chapter 8
00:30:24.573 : en:Chapter 9
00:35:07.606 : en:Chapter 10
00:38:44.197 : en:Chapter 11
00:44:36.966 : en:Chapter 12
00:49:26.422 : en:Chapter 13
00:52:29.855 : en:Chapter 14
00:55:58.731 : en:Chapter 15
01:01:47.079 : en:Chapter 16
01:06:25.232 : en:Chapter 17
01:10:51.247 : en:Chapter 18
01:15:18.264 : en:Chapter 19
01:20:56.852 : en:Chapter 20
01:25:20.032 : en:Chapter 21
01:30:13.992 : en:Chapter 22
01:34:58.151 : en:Chapter 23
01:42:54.627 : en:Chapter 24
Свернуть

"Скриншоты"
Изображение
Изображение
Изображение


Свернуть
_________________
Не ищите меня в "ВКонтакте", в "Одноклассниках" меня нет - я на трекерах сижу!


Последний раз редактировалось Оля 88 2014-11-26 19:26, всего редактировалось 2 раз(а).
Не в сети
Профиль  
 Добавлено: 2014-11-23 13:14 (спустя 1 день 19 часов)
Стаж: 4 года 9 месяцев
Сообщений: 388
Лайков: 64
Этот фильм когда-нибудь дораздадут?
Не в сети
Профиль  
 Добавлено: 2014-11-26 01:44 (спустя 2 дня 12 часов)
Стаж: 6 лет 9 месяцев
Сообщений: 13
Такая же фигня...уже второй день 97.3% и скорость 0.1-0.2 кб/сек((((((((((ужас
Не в сети
Профиль  
 Добавлено: 2014-11-26 19:25 (спустя 17 часов)
RG-ELEKTRO
Аватара пользователя
Стаж: 2 года 3 месяца
Сообщений: 7928
Спасибок: 53736
Лайков: 3304
На первоисточнике добавили русские сабы и потому раздача заглохла на 97%, перезалила торрент-файл, но скачивать надо все заново, приношу свои извинения и готова понести любое наказание.
_________________
Не ищите меня в "ВКонтакте", в "Одноклассниках" меня нет - я на трекерах сижу!
 Alexsever нравится это.
Не в сети
Профиль  
Начать новую темуОтветить на тему  [ Сообщений: 4 ] 
Вы не можете начинать темы
Вы не можете отвечать на сообщения
Вы не можете редактировать свои сообщения
Вы не можете удалять свои сообщения