Правила форума

  • В этом разделе создание новых тем Запрещено.
  • Для создания новых тем пользуйтесь Корневым разделом DVD и HD фильмы.
Начать новую темуОтветить на тему  [ Сообщений: 2 ] 
Торрент файл
Размер: 11.23 GB • Зарегистрирован: 2 года • Статус: Проверено
Скачан: 108 раз • Желающих скачать: 0 • Поблагодарили: 33 раза
 Раздают: 1  |  0 KB/s  ]   Качают: 0  |  0 KB/s  ] 
Сообщения
 Добавлено: 2014-11-21 13:28
Аватара пользователя
Стаж: 9 лет 1 месяц
Сообщений: 8018
Спасибок: 122272
Лайков: 1194
Человек ноября / The November Man

«Бывших агентов не бывает»

Изображение


Год выпуска: 2014
Страна: Изображение США
Жанр: боевик, триллер, криминал
Продолжительность: 01:48:32
Субтитры: Английские
Перевод: Профессиональный (полное дублирование) [Лицензия]


Режиссер: Роджер Дональдсон
Сценарий: Майкл Финч, Карл Гайдусек, Билл Грейнджер
Продюсер: Шрирам Дас, Бо Ст. Клэр, Брандт Андерсон
Оператор: Ромейн Лакурбас
Композитор: Марко Белтрами

В ролях: Пирс Броснан, Люк Брейси, Ольга Куриленко, Билл Смитрович, Амила Терзимехик, Лазар Ристовски, Медиха Муслиович, Элайза Тейлор, Катерина Скорсоне, Аки Котабе

Описание: Экс-агент ЦРУ, невольно вернувшись в дело, оказывается в эпицентре международной интриги, затеянной главами разведывательного управления. В их планах — внедрение во внутреннюю политику стран Восточной Европы через кандидата в президенты РФ с помощью шантажа грязным прошлым. На его совести — вторая вспышка войны на Северном Кавказе, жертвы, насилие. Но Питер Дэверо разгадывает тайны нечестной игры …

Изображение Изображение

Раздача группы: Изображение

Качество: BDRip (1080p)
Формат: Matroska
Видео: MPEG-4 AVC, 11.5 Мбит/с, 1920x800
Аудио №1: Русский (DTS, 48,0 КГц, 6 ch, 1510 Кбит/c)
Аудио №2: Английский (DTS, 48,0 КГц, 6 ch, 1510 Кбит/c)

MediaInfo
Format : Matroska
Format version : Version 4 / Version 2
File size : 11.2 GiB
Duration : 1h 48mn
Overall bit rate : 14.8 Mbps
Movie name : Tonik
Encoded date : UTC 2014-11-21 03:45:43
Writing application : mkvmerge v7.1.0 ('Good Love') 64bit built on Jul 27 2014 13:06:55
Writing library : libebml v1.3.0 + libmatroska v1.4.1
Cover : Yes
_STATISTICS_WRITING_APP : mkvmerge v7.1.0 ('Good Love') 64bit built on Jul 27 2014 13:06:55
_STATISTICS_WRITING_DATE_UTC : 2014-11-21 03:45:43
_STATISTICS_TAGS : BPS DURATION NUMBER_OF_FRAMES NUMBER_OF_BYTES
DURATION : 01:47:24.646000000
NUMBER_OF_FRAMES : 1140
NUMBER_OF_BYTES : 34716

Video
ID : 1
Format : AVC
Format/Info : Advanced Video Codec
Format profile : High@L4.1
Format settings, CABAC : Yes
Format settings, ReFrames : 4 frames
Codec ID : V_MPEG4/ISO/AVC
Duration : 1h 48mn
Bit rate : 11.5 Mbps
Width : 1 920 pixels
Height : 800 pixels
Display aspect ratio : 2.40:1
Frame rate mode : Constant
Frame rate : 23.976 fps
Color space : YUV
Chroma subsampling : 4:2:0
Bit depth : 8 bits
Scan type : Progressive
Bits/(Pixel*Frame) : 0.313
Stream size : 8.72 GiB (78%)
Writing library : x264 core 125 r2208 d9d2288
Encoding settings : cabac=1 / ref=4 / deblock=1:-3:-3 / analyse=0x3:0x133 / me=umh / subme=11 / psy=1 / psy_rd=1.00:0.00 / mixed_ref=1 / me_range=32 / chroma_me=1 / trellis=2 / 8x8dct=1 / cqm=0 / deadzone=21,11 / fast_pskip=0 / chroma_qp_offset=-2 / threads=12 / lookahead_threads=2 / sliced_threads=0 / nr=0 / decimate=1 / interlaced=0 / bluray_compat=0 / constrained_intra=0 / bframes=8 / b_pyramid=2 / b_adapt=2 / b_bias=0 / direct=1 / weightb=1 / open_gop=0 / weightp=2 / keyint=250 / keyint_min=23 / scenecut=40 / intra_refresh=0 / rc=crf / mbtree=0 / crf=18.0 / qcomp=0.60 / qpmin=0 / qpmax=69 / qpstep=4 / ip_ratio=1.10 / pb_ratio=1.10 / aq=1:1.00
Language : English
Default : Yes
Forced : No
DURATION : 01:48:21.495000000
NUMBER_OF_FRAMES : 155880
NUMBER_OF_BYTES : 9597972334
_STATISTICS_WRITING_APP : mkvmerge v7.1.0 ('Good Love') 64bit built on Jul 27 2014 13:06:55
_STATISTICS_WRITING_DATE_UTC : 2014-11-21 03:45:43
_STATISTICS_TAGS : BPS DURATION NUMBER_OF_FRAMES NUMBER_OF_BYTES

Audio #1
ID : 2
Format : DTS
Format/Info : Digital Theater Systems
Mode : 16
Format settings, Endianness : Big
Codec ID : A_DTS
Duration : 1h 48mn
Bit rate mode : Constant
Bit rate : 1 509 Kbps
Channel(s) : 6 channels
Channel positions : Front: L C R, Side: L R, LFE
Sampling rate : 48.0 KHz
Bit depth : 16 bits
Compression mode : Lossy
Stream size : 1.14 GiB (10%)
Language : Russian
Default : Yes
Forced : No

Audio #2
ID : 3
Format : DTS
Format/Info : Digital Theater Systems
Mode : 16
Format settings, Endianness : Big
Codec ID : A_DTS
Duration : 1h 48mn
Bit rate mode : Constant
Bit rate : 1 509 Kbps
Channel(s) : 6 channels
Channel positions : Front: L C R, Side: L R, LFE
Sampling rate : 48.0 KHz
Bit depth : 24 bits
Compression mode : Lossy
Stream size : 1.14 GiB (10%)
Language : English
Default : No
Forced : No

Text
ID : 4
Format : UTF-8
Codec ID : S_TEXT/UTF8
Codec ID/Info : UTF-8 Plain Text
Language : English
Default : No
Forced : No

Menu
00:00:00.000 : en:Chapter 1
00:05:37.379 : en:Chapter 2
00:08:16.538 : en:Chapter 3
00:11:00.368 : en:Chapter 4
00:16:43.670 : en:Chapter 5
00:20:16.215 : en:Chapter 6
00:23:32.829 : en:Chapter 7
00:25:50.925 : en:Chapter 8
00:30:24.573 : en:Chapter 9
00:35:07.606 : en:Chapter 10
00:38:44.197 : en:Chapter 11
00:44:36.966 : en:Chapter 12
00:49:26.422 : en:Chapter 13
00:52:29.855 : en:Chapter 14
00:55:58.731 : en:Chapter 15
01:01:47.079 : en:Chapter 16
01:06:25.232 : en:Chapter 17
01:10:51.247 : en:Chapter 18
01:15:18.264 : en:Chapter 19
01:20:56.852 : en:Chapter 20
01:25:20.032 : en:Chapter 21
01:30:13.992 : en:Chapter 22
01:34:58.151 : en:Chapter 23
01:42:54.627 : en:Chapter 24
Свернуть
Знаете ли вы, что...
В основу картины положена седьмая книга из серии романов «Человек ноября» американского писателя Билла Грейнджера «Никаких шпионов».

Пирс Броснан вместе со своей приятельницей продюсером Бо Ст. Клэр приобрели права на экранизацию серии книг «Человек ноября» еще в 2005 году. Не дожидаясь мировой премьеры фильма, Броснан заявил, что начинает работу над второй лентой новой франшизы.

Дата рождения, которая указана в файле Дэверо (16 мая 1953), совпадает с настоящим днем рождения Пирса Броснана.

Вместо здания Госдумы в Москве показан Дом правительства РФ.

Свернуть
Скриншоты
Изображение
Изображение
Изображение
Изображение
Свернуть
Не в сети
Профиль  
 Добавлено: 2016-08-08 02:32 (спустя 1 год 8 месяцев)
Аватара пользователя
Стаж: 5 лет 10 месяцев
Возраст: 49
Сообщений: 317
Спасибок: 1916
Лайков: 121
Играет Джеймс Бонд, а по сюжету больше напоминает Джейсона Борна... :sh_ok: :-D
В сети
Профиль  
Начать новую темуОтветить на тему  [ Сообщений: 2 ] 
Вы не можете начинать темы
Вы не можете отвечать на сообщения
Вы не можете редактировать свои сообщения
Вы не можете удалять свои сообщения