Правила форума

  • В этом разделе создание новых тем Запрещено.
  • Для создания новых тем пользуйтесь Корневым разделом DVD и HD фильмы.
Начать новую темуОтветить на тему  [ Сообщений: 6 ] 
Торрент файл
Размер: 9.15 GB • Зарегистрирован: 3 года 8 месяцев • Статус: Проверено
Скачан: 355 раз • Желающих скачать: 0 • Поблагодарили: 108 раз
 Раздают: 0  |  0 KB/s  ]   Качают: 0  |  0 KB/s  ] 
 Полного источника не было 1 год 7 месяцев 
Сообщения
 Добавлено: 2013-03-26 12:46
Аватара пользователя
Стаж: 9 лет 1 месяц
Сообщений: 7981
Спасибок: 122205
Лайков: 1191
Человек с железными кулаками / The Man with the Iron Fists

«Seven clans, a fortune in gold. Let the battle begin.»

Изображение


Год выпуска: 2012
Страна: Изображение США Изображение Гонконг
Жанр: боевик
Продолжительность: 01:35:16
Субтитры: Русские, английские
Перевод: Профессиональный (полное дублирование) [Лицензия]


Режиссёр: RZA
Сценарист: RZA, Элай Рот
Продюсер: Марк Абрахам, Эрик Ньюман, Элай Рот
Оператор: Чи Йинг Чан
Композитор: Ховард Дроссин, RZA

В ролях: Рассел Кроу, Люси Лью, Пэм Гриер, РЗА, Джа Хуи Лью, Джеми Чунг, Дэйв Батиста, Кунг Ле, Жу Жу, Рик Юн, Байрон Манн, Осрик Чау

Описание: События развернутся в древнем феодальном Китае. Фильм расскажет историю чернокожего кузнеца, который умеет делать оружие и с легкой руки снабжает им всех, у кого есть чем заплатить. Китай того времени — жестокое место, поэтому оружие и знание навыков кунг-фу помогут жителям близлежащей деревни защитить свои дома и семьи от других кланов…

Изображение Изображение

Релиз группы: Изображение Раздача группы: Изображение

Качество: BDRip (1080p)
Формат: Matroska
Видео: MPEG-4 AVC, 11.2 Мбит/с, 1920x800
Аудио №1: Русский (DTS, 48,0 КГц, 6 ch, 755 Кбит/с)
Аудио №2: Английский (DTS, 48,0 КГц, 6 ch, 1509 Кбит/c)

MediaInfo
Общее
Уникальный идентификатор : 192083398945722541316746261134113326826 (0x9081EABF86265CAC9E0A0AE8421146EA)
Полное имя : C:\Фильмы\Zheleznyj.kulak.2012.D.BDRip.1080p.R.G.Daredevil.mkv
Формат : Matroska
Версия формата : Version 2
Размер файла : 9,15 Гбайт
Продолжительность : 1 ч. 35 м.
Общий поток : 13,7 Мбит/сек
Название фильма : IRONCLUB
Дата кодирования : UTC 2013-03-26 08:01:49
Программа кодирования : mkvmerge v5.2.0 ('I can't explain') built on Dec 18 2011 18:12:03
Библиотека кодирования : libebml v1.2.3 + libmatroska v1.3.0

Видео
Идентификатор : 1
Формат : AVC
Формат/Информация : Advanced Video Codec
Профиль формата : High@L4.1
Параметр CABAC формата : Да
Параметр ReFrames формата : 5 кадров
Идентификатор кодека : V_MPEG4/ISO/AVC
Продолжительность : 1 ч. 35 м.
Битрейт : 11,2 Мбит/сек
Ширина : 1920 пикселей
Высота : 800 пикселей
Соотношение сторон : 2,40:1
Режим частоты кадров : Постоянный
Частота кадров : 23,976 кадра/сек
Цветовое пространство : YUV
Субдискретизация насыщенности : 4:2:0
Битовая глубина : 8 бит
Тип развёртки : Прогрессивная
Бит/(Пиксели*Кадры) : 0.304
Размер потока : 7,45 Гбайт (81%)
Заголовок : The Man with the Iron Fists 2012 1080p BluRay DTS x264-IRONCLUB
Библиотека кодирования : x264 core 130 r2273 b3065e6
Настройки программы : cabac=1 / ref=5 / deblock=1:-3:-3 / analyse=0x3:0x113 / me=umh / subme=11 / psy=1 / psy_rd=1.20:0.00 / mixed_ref=1 / me_range=48 / chroma_me=1 / trellis=2 / 8x8dct=1 / cqm=0 / deadzone=21,11 / fast_pskip=0 / chroma_qp_offset=-2 / threads=12 / lookahead_threads=2 / sliced_threads=0 / nr=0 / decimate=1 / interlaced=0 / bluray_compat=0 / constrained_intra=0 / bframes=9 / b_pyramid=2 / b_adapt=2 / b_bias=0 / direct=3 / weightb=1 / open_gop=0 / weightp=2 / keyint=250 / keyint_min=23 / scenecut=40 / intra_refresh=0 / rc_lookahead=40 / rc=crf / mbtree=0 / crf=17.0 / qcomp=0.75 / qpmin=0 / qpmax=69 / qpstep=4 / vbv_maxrate=50000 / vbv_bufsize=62500 / crf_max=0.0 / nal_hrd=none / ip_ratio=1.30 / pb_ratio=1.10 / aq=1:0.80
Язык : English
Default : Да
Forced : Да
Коэффициенты матрицы : BT.709

Аудио #1
Идентификатор : 2
Формат : DTS
Формат/Информация : Digital Theater Systems
Режим : 16
Параметр Endianness формата : Big
Идентификатор кодека : A_DTS
Продолжительность : 1 ч. 35 м.
Вид битрейта : Постоянный
Битрейт : 768 Кбит/сек
Каналы : 6 каналов
Расположение каналов : Front: L C R, Side: L R, LFE
Частота : 48,0 КГц
Битовая глубина : 24 бит
Метод сжатия : С потерями
Размер потока : 523 Мбайт (6%)
Заголовок : DTS 5.1 @ 768 kbps - Dub, BD CEE
Язык : Russian
Default : Да
Forced : Да

Аудио #2
Идентификатор : 3
Формат : DTS
Формат/Информация : Digital Theater Systems
Режим : 16
Параметр Endianness формата : Big
Идентификатор кодека : A_DTS
Продолжительность : 1 ч. 35 м.
Вид битрейта : Постоянный
Битрейт : 1509 Кбит/сек
Каналы : 6 каналов
Расположение каналов : Front: L C R, Side: L R, LFE
Частота : 48,0 КГц
Битовая глубина : 24 бит
Метод сжатия : С потерями
Размер потока : 1,00 Гбайт (11%)
Заголовок : DTS 5.1 @ 1536 kbps
Язык : English
Default : Нет
Forced : Нет

Текст #1
Идентификатор : 4
Формат : UTF-8
Идентификатор кодека : S_TEXT/UTF8
Идентификатор кодека/Информация : UTF-8 Plain Text
Заголовок : Forced
Язык : Russian
Default : Нет
Forced : Нет

Текст #2
Идентификатор : 5
Формат : UTF-8
Идентификатор кодека : S_TEXT/UTF8
Идентификатор кодека/Информация : UTF-8 Plain Text
Заголовок : BD CEE
Язык : Russian
Default : Нет
Forced : Нет

Текст #3
Идентификатор : 6
Формат : UTF-8
Идентификатор кодека : S_TEXT/UTF8
Идентификатор кодека/Информация : UTF-8 Plain Text
Заголовок : SDH
Язык : English
Default : Нет
Forced : Нет

Меню
00:00:00.000 : en:00:00:00.000
00:06:19.420 : en:00:06:19.420
00:10:52.568 : en:00:10:52.568
00:16:46.046 : en:00:16:46.046
00:19:25.664 : en:00:19:25.664
00:24:09.406 : en:00:24:09.406
00:27:41.910 : en:00:27:41.910
00:31:51.993 : en:00:31:51.993
00:38:35.438 : en:00:38:35.438
00:41:54.303 : en:00:41:54.303
00:48:14.516 : en:00:48:14.516
00:54:44.906 : en:00:54:44.906
01:00:31.252 : en:01:00:31.252
01:05:21.375 : en:01:05:21.375
01:10:49.787 : en:01:10:49.787
01:13:59.017 : en:01:13:59.017
01:18:26.243 : en:01:18:26.243
01:21:29.843 : en:01:21:29.843
01:25:16.444 : en:01:25:16.444
01:28:56.038 : en:01:28:56.038
Свернуть
Знаете ли вы, что...
Первая монтажная версия фильма длилась 4 часа. Режиссер RZA хотел разделить материал на два полнометражных фильма, но соавтор сценария и продюсер фильма Элай Рот не согласился с таким вариантом. И в результате кропотливой работы создателям удалось сократить продолжительность фильма до приемлемых 90 минут экранного времени.

Более двух лет заняла у RZA и Элая Рота работа над сценарием фильма, в котором они проработали все аспекты в сюжете и каждую деталь в используемом оружии.

«Крик Вильгельма» можно услышать, когда Тадеуш бросает мужчину с балкона.

Когда Рассел Кроу идет через комнату, он надевает очки, но, прежде чем он подходит к двери, очки падают. Однако, когда он открывает дверь мадам Блоссом, его очки снова на месте.

Свернуть
Скриншоты
Изображение
Изображение
Изображение
Изображение
Свернуть
Не в сети
Профиль  
 Добавлено: 2013-03-26 15:51 (спустя 3 часа)
Аватара пользователя
Стаж: 8 лет 2 месяца
Сообщений: 50
Спасибок: 7
Это Рыбак на первом скрине?
Не в сети
Профиль  
 Добавлено: 2013-03-26 17:48 (спустя 1 час 57 минут)
Стаж: 5 лет 3 месяца
Сообщений: 151
Лайков: 2
Весёленький фильм)Море крови и все летают)Посмотрел и не жалею об этом!
Не в сети
Профиль  
 Добавлено: 2013-03-27 11:20 (спустя 17 часов)
Аватара пользователя
Стаж: 8 лет
Сообщений: 140
Спасибок: 51
интересненько :-D .
_________________
Изображение 6 мB/s Изображение 600 kB/s
Изображение
Не в сети
Профиль  
 Добавлено: 2013-03-29 17:54 (спустя 2 дня 6 часов)
Аватара пользователя
Стаж: 7 лет 8 месяцев
Сообщений: 206
Прикольный фильм, интересно что в титрах заявлен Квентин Тарантино.......рубилово,кровь льётся на экран в духе Тарантино. Посмотрел с удовольствием, и снялся сам Рассел Кроу и Люси, нужны такие фильмы когда голову нагружать не надо!!!! Автору за релиз СПАСИБО !!!
Не в сети
Профиль  
 Добавлено: 2013-03-30 13:38 (спустя 19 часов)
Аватара пользователя
Стаж: 8 лет 6 месяцев
Возраст: 25
Сообщений: 1092
Спасибок: 600
Лайков: 7
Как фанат творчества Wu-Tang не могу пропустить фильм от RZA :)
_________________
Изображение

Изображение Хороший......плохой......главный у кого ружьё!
Не в сети
Профиль  
Начать новую темуОтветить на тему  [ Сообщений: 6 ] 
Вы не можете начинать темы
Вы не можете отвечать на сообщения
Вы не можете редактировать свои сообщения
Вы не можете удалять свои сообщения