Правила форума

  • В этом разделе создание новых тем Запрещено.
  • Для создания новых тем пользуйтесь Корневым разделом DVD и HD фильмы.
Начать новую темуОтветить на тему  [ Сообщений: 12 ] 
Торрент файл
Размер: 8.08 GB • Зарегистрирован: 4 года 7 месяцев • Статус: Проверено
Скачан: 361 раз • Желающих скачать: 0 • Поблагодарили: 94 раза
 Раздают: 0  |  0 KB/s  ]   Качают: 0  |  0 KB/s  ] 
 Полного источника не было 2 часа 14 минут 
Сообщения
 Добавлено: 2012-05-03 12:59
Аватара пользователя
Стаж: 8 лет 9 месяцев
Сообщений: 59
Спасибок: 336
Человек с планеты Земля / The Man from Earth

Изображение

Год выхода: 2007
Жанр: Научная фантастика
Продолжительность: 1:27:08

Перевод: профессиональный (многоголосый закадровый)
Cубтитры: нет
Оригинальная аудиодорожка: английский

Режиссер: Ричард Шенкман /Richard Schenkman/
В ролях: Дэвид Ли Смит, Тони Тодд, Джон Биллингсли, Эллен Кроуфорд, Анника Петерсон, Уильям Кэтт, Алексис Торпе, Ричард Риле, Steven Littles, Chase Strague

Сюжет: Никто из друзей и коллег профессора Джона Олдмэна не ожидал чем обернется прощальная вечеринка, устроенная им по поводу своего отъезда. Джон удивил признанием о том, что он бессмертный человек, живущий на Земле уже около 14 тысяч лет. Конечно, никто не воспринимает признание Джона всерьез. Он рассказывает о том, когда он родился, когда впервые понял, что он не такой как все, как ему приходилось выживать все эти тысячи лет и многое другое. Друзья Джона оказываются заинтригованы: с одной стороны история Джона достаточно нелепа и нереальна, а с другой стороны их друг Джон вовсе не тот человек, которому нравится разыгрывать своих друзей. Вся его история начинает выглядеть очень достоверно, что заставляет его друзей нервничать: слишком уж убедительным оказался Джон и для шутки его история явно затянулась...

Тип релиза:BDRip 1080p
Контейнер:MKV
Видео: AVC, 1 920x1080, 23.976 fps, 0.250 Bit/Pixel, 12.4 Mbps
Аудио 1: AC-3, 2ch, 48.0 KHz, 224 Kbps (rus)
Аудио 2: AC-3, 6ch, 48.0 KHz, 640 Kbps (eng)

"Скриншоты"
Изображение
Изображение
Изображение
Свернуть

"mediainfo"
Complete name : C:\Users\Alex\Desktop\Downloads\Chelovek.s.zemli.2007.x264.BDRip.1080p.mkv
Format : Matroska
File size : 8.08 GiB
Duration : 1h 27mn
Overall bit rate : 13.3 Mbps
Encoded date : UTC 2011-03-07 11:40:51
Writing application : mkvmerge v4.5.0 ('Speed of Light')
Writing library : libebml v1.2.0 + libmatroska v1.1.0

Video
ID : 1
Format : AVC
Format/Info : Advanced Video Codec
Format profile : High@L4.1
Format settings, CABAC : Yes
Format settings, ReFrames : 4 frames
Muxing mode : Header stripping
Codec ID : V_MPEG4/ISO/AVC
Duration : 1h 27mn
Bit rate : 12.4 Mbps
Width : 1 920 pixels
Height : 1 080 pixels
Display aspect ratio : 16:9
Frame rate : 23.976 fps
Color space : YUV
Chroma subsampling : 4:2:0
Bit depth : 8 bits
Scan type : Progressive
Bits/(Pixel*Frame) : 0.250
Stream size : 7.39 GiB (92%)
Writing library : x264 core 83 r1400 20fa784
Encoding settings : cabac=1 / ref=4 / deblock=1:0:0 / analyse=0x3:0x133 / me=umh / subme=7 / psy=1 / psy_rd=1.0:0.0 / mixed_ref=1 / me_range=16 / chroma_me=1 / trellis=1 / 8x8dct=1 / cqm=0 / deadzone=21,11 / fast_pskip=0 / chroma_qp_offset=-2 / threads=12 / sliced_threads=0 / nr=0 / decimate=1 / mbaff=0 / constrained_intra=0 / bframes=3 / b_pyramid=0 / b_adapt=1 / b_bias=0 / direct=1 / wpredb=1 / wpredp=2 / keyint=250 / keyint_min=25 / scenecut=40 / intra_refresh=0 / rc_lookahead=40 / rc=2pass / mbtree=1 / bitrate=12427 / ratetol=1.0 / qcomp=0.60 / qpmin=10 / qpmax=51 / qpstep=4 / cplxblur=20.0 / qblur=0.5 / ip_ratio=1.40 / aq=1:1.00
Language : English

Audio #1
ID : 2
Format : AC-3
Format/Info : Audio Coding 3
Mode extension : CM (complete main)
Muxing mode : Header stripping
Codec ID : A_AC3
Duration : 1h 27mn
Bit rate mode : Constant
Bit rate : 640 Kbps
Channel(s) : 6 channels
Channel positions : Front: L C R, Side: L R, LFE
Sampling rate : 48.0 KHz
Bit depth : 16 bits
Compression mode : Lossy
Stream size : 399 MiB (5%)
Language : English

Audio #2
ID : 3
Format : AC-3
Format/Info : Audio Coding 3
Mode extension : CM (complete main)
Muxing mode : Header stripping
Codec ID : A_AC3
Duration : 1h 27mn
Bit rate mode : Constant
Bit rate : 224 Kbps
Channel(s) : 2 channels
Channel positions : Front: L R
Sampling rate : 48.0 KHz
Bit depth : 16 bits
Compression mode : Lossy
Stream size : 140 MiB (2%)
Language : Russian
Свернуть


Последний раз редактировалось uzu 2012-05-03 15:26, всего редактировалось 2 раз(а).
Не в сети
Профиль  
 Добавлено: 2012-05-03 14:46 (спустя 1 час 47 минут)
Руководитель релиз-группы
Аватара пользователя
Стаж: 7 лет 5 месяцев
Возраст: 31
Сообщений: 3406
Спасибок: 46729
Лайков: 5
uzu
Для HD и HQRip-ов необходимы скриншоты в формате PNG, для остальных форматов PNG так же рекомендуется.
Исправьте пожалуйста :)
Как все исправите, то сообщите пожалуйста мне или любому модератору видео, обязательно со ссылкой на релиз
Не в сети
Профиль  
 Добавлено: 2012-05-04 23:53 (спустя 1 день 9 часов)
Музыкоед
Аватара пользователя
Стаж: 7 лет 4 месяца
Сообщений: 2111
Лайков: 466
Гениально. Один из лучших фантастических фильмов вообще. Несмотря на тупое название.
Не в сети
Профиль  
 Добавлено: 2012-05-06 15:14 (спустя 1 день 15 часов)
Аватара пользователя
Стаж: 7 лет 8 месяцев
Сообщений: 215
Лайков: 2
надо глянуть...
_________________
Core i5 2400 / 16GB DDR3 / GTX 960
Не в сети
Профиль  
 Добавлено: 2012-05-06 15:34 (спустя 19 минут)
Стаж: 9 лет
Сообщений: 153
Спасибок: 49
Классный фильм)
Не в сети
Профиль  
 Добавлено: 2012-05-28 19:56 (спустя 22 дня)
Стаж: 6 лет 10 месяцев
Сообщений: 14
А у меня звук тормозит! Смотреть стрёмно...
Не в сети
Профиль  
 Добавлено: 2012-06-26 20:51 (спустя 29 дней)
Аватара пользователя
Стаж: 7 лет 2 месяца
Сообщений: 38
Редко встретишь фильм с настолько продуманным сюжетным смыслом!Хотя весь фильм не выходя из дома,выключить желания не возникает! Смотрите,не пожалеете.. +5
Не в сети
Профиль  
 Добавлено: 2013-06-16 08:52 (спустя 11 месяцев)
Аватара пользователя
Стаж: 6 лет 8 месяцев
Возраст: 28
Сообщений: 26
Включил и забыл о времени, настолько погрузился в просмотр. :cool_cool:
Не в сети
Профиль  
 Добавлено: 2013-06-16 17:31 (спустя 8 часов)
Аватара пользователя
Стаж: 6 лет 3 месяца
Сообщений: 26
Фильм просто супер...есть о чем подумать...спасибо)))
Не в сети
Профиль  
 Добавлено: 2013-07-30 19:28 (спустя 1 месяц 14 дней)
Аватара пользователя
Стаж: 8 лет
Сообщений: 30
Шикарное кино!
Не в сети
Профиль  
 Добавлено: 2013-08-19 15:07 (спустя 19 дней)
Top-releaser
Аватара пользователя
Стаж: 7 лет 4 месяца
Возраст: 38
Сообщений: 5347
Спасибок: 10068
Лайков: 2936
Фильм ....ну не очень...но идея! Какой сюжет для огромного фантастического романа-человек живущий 14000 лет....Красота! Да и просто подумать, представить себе это- уже очень интересно.....
Не в сети
Профиль  
 Добавлено: 2014-01-21 16:24 (спустя 5 месяцев 2 дня)
Кинокомментатор
Аватара пользователя
Стаж: 9 лет 1 месяц
Сообщений: 1332
Лайков: 54
как ни странно) но походу, быдло не добралось до этого фильма:) поэтому ни одного негативного отзыва! а фильм реально очень крут, думать, размышлять, мыслительная гимнастика - есть хорошо:) смотреть или нет!? ну конечно же смотреть! обязательно! 8/10
_________________
Я ВКонтакте


Тема поднималась пользователем uzu 2014-01-21 16:24.
Не в сети
Профиль  
Начать новую темуОтветить на тему  [ Сообщений: 12 ] 
Вы не можете начинать темы
Вы не можете отвечать на сообщения
Вы не можете редактировать свои сообщения
Вы не можете удалять свои сообщения