Правила форума

  • В этом разделе создание новых тем Запрещено.
  • Для создания новых тем пользуйтесь Корневым разделом DVD и HD фильмы.
Начать новую темуОтветить на тему  [ 1 сообщение ] 
Торрент файл
Размер: 7.91 GB • Зарегистрирован: 3 года 11 месяцев • Статус: Проверено
Скачан: 16 раз • Желающих скачать: 0 • Поблагодарили: 7 раз
 Раздают: 0  |  0 KB/s  ]   Качают: 0  |  0 KB/s  ] 
 Полного источника не было 2 года 8 месяцев 
Сообщения
 Добавлено: 2012-12-08 20:22
Top-releaser
Аватара пользователя
Стаж: 6 лет 7 месяцев
Сообщений: 2078
Спасибок: 3230
Лайков: 9
Изображение

Человек в железной маске
The Man in the Iron Mask


Год выпуска: 1998
Страна: США, Великобритания
Слоган: «For the honor of a king. And the destiny of a country. All for one.»
Жанр: боевик, драма, приключения, история
Продолжительность: 02:12:15
Перевод: Профессиональный (полное дублирование)
Сценарий: Рэндалл Уоллес, Александр Дюма отец
Продюсер: Рене Дюпон, Пол Хичкок, Алан Лэдд мл., Расселл Смит, Рэндалл Уоллес
В ролях: Леонардо ДиКаприо, Джереми Айронс, Джон Малкович, Жерар Депардье, Гэбриел Бирн, Анн Парийо, Жюдит Годреш, Эдвард Аттертон, Питер Сарсгаард, Хью Лори, Дэвид Лоу, Бриджитт Бучер
Бюджет: $35 000 000
Сборы в США: $56 968 902
Сборы в мире: $182 968 902
Мировая премьера: 13 марта 1998
Релиз на DVD: 28 августа 2008, «Двадцатый Век Фокс СНГ»
Релиз на Blu-ray: 27 мая 2010, «Двадцатый Век Фокс СНГ»
Описание: Во времена блеска и отчаяния измученной Франции король Людовик XIV вовсю наслаждается прелестями жизни, пока вся его страна голодает. Людовик, уверенный в абсолютности собственной власти, опасается лишь одного человека, способного положить конец его царствованию, - приговоренного им к пожизненному заключению и закованного в железную маску.
Но когда королевский эгоизм заходит слишком далеко, бывшие мушкетеры Атос, Портос и Арамис отваживаются спасти таинственного узника, который может стать единственной надеждой Франции на возрождение. Остается лишь вопрос: поможет ли им верный друг, славный д`Артаньян, - или будет драться против?..

Раздача группы: Изображение

Изображение User Rating: 7.351 (16 441)
Изображение User Rating: 6.30 (71 094)
MPAA: PG-13 - Детям до 13 лет просмотр не желателен
Качество: BDRip, 720p
Формат: Matroska
Видео: AVC; 1280x696 (16:9); 6122 Kbps; 23,976 fps; 0,287 bit/pixel
Аудио №1: Russian; DTS; 754 Kbps; CBR; 6 ch; 24 bit
Аудио №2: English; DTS; 1509 Kbps; CBR; 6 ch; 24 bit

Субтитры: Russian, English

MediaInfo
Общее
Уникальный идентификатор : 204569129569132091803282616752867591361 (0x99E694CBB7025EBDBE7A983797CB44C1)
Полное имя : Z:\WWW\TR-Downloads\The.man.in.the.iron.mask.BDRip.720p[R.G.Daredevil].mkv
Формат : Matroska
Версия формата : Version 2
Размер файла : 7,91 Гбайт
Продолжительность : 2 ч. 12 м.
Общий поток : 8557 Кбит/сек
Дата кодирования : UTC 2010-05-17 17:28:26
Программа кодирования : mkvmerge v3.2.0 ('Beginnings') built on Feb 12 2010 16:46:17
Библиотека кодирования : libebml v0.7.9 + libmatroska v0.8.1

Видео
Идентификатор : 1
Формат : AVC
Формат/Информация : Advanced Video Codec
Профиль формата : High@L4.1
Параметр CABAC формата : Да
Параметр ReFrames формата : 8 кадров
Идентификатор кодека : V_MPEG4/ISO/AVC
Продолжительность : 2 ч. 12 м.
Битрейт : 6277 Кбит/сек
Ширина : 1280 пикселей
Высота : 696 пикселей
Соотношение сторон : 1,85:1
Частота кадров : 23,976 кадра/сек
Цветовое пространство : YUV
Субдискретизация насыщенности : 4:2:0
Битовая глубина : 8 бит
Тип развёртки : Прогрессивная
Бит/(Пиксели*Кадры) : 0.294
Размер потока : 5,66 Гбайт (72%)
Библиотека кодирования : x264 core 88 r1471 1144615
Настройки программы : cabac=1 / ref=8 / deblock=1:-2:-2 / analyse=0x3:0x113 / me=umh / subme=10 / psy=1 / psy_rd=1.00:0.00 / mixed_ref=1 / me_range=64 / chroma_me=1 / trellis=2 / 8x8dct=1 / cqm=0 / deadzone=21,11 / fast_pskip=0 / chroma_qp_offset=-2 / threads=6 / sliced_threads=0 / nr=0 / decimate=1 / mbaff=0 / constrained_intra=0 / bframes=6 / b_pyramid=2 / b_adapt=2 / b_bias=0 / direct=3 / wpredb=1 / wpredp=2 / keyint=250 / keyint_min=25 / scenecut=40 / intra_refresh=0 / rc_lookahead=40 / rc=2pass / mbtree=1 / bitrate=6277 / ratetol=1.0 / qcomp=0.60 / qpmin=10 / qpmax=51 / qpstep=4 / cplxblur=20.0 / qblur=0.5 / vbv_maxrate=50000 / vbv_bufsize=62500 / ip_ratio=1.40 / aq=1:1.00
Default : Да
Forced : Нет

Аудио #1
Идентификатор : 2
Формат : DTS
Формат/Информация : Digital Theater Systems
Идентификатор кодека : A_DTS
Продолжительность : 2 ч. 12 м.
Вид битрейта : Постоянный
Битрейт : 755 Кбит/сек
Каналы : 6 каналов
Расположение каналов : Front: L C R, Side: L R, LFE
Частота : 48,0 КГц
Битовая глубина : 24 бит
Метод сжатия : С потерями
Размер потока : 714 Мбайт (9%)
Язык : Russian
Default : Да
Forced : Нет

Аудио #2
Идентификатор : 3
Формат : DTS
Формат/Информация : Digital Theater Systems
Идентификатор кодека : A_DTS
Продолжительность : 2 ч. 12 м.
Вид битрейта : Постоянный
Битрейт : 1510 Кбит/сек
Каналы : 6 каналов
Расположение каналов : Front: L C R, Side: L R, LFE
Частота : 48,0 КГц
Битовая глубина : 24 бит
Метод сжатия : С потерями
Размер потока : 1,39 Гбайт (18%)
Язык : English
Default : Нет
Forced : Нет

Текст #1
Идентификатор : 4
Формат : UTF-8
Идентификатор кодека : S_TEXT/UTF8
Идентификатор кодека/Информация : UTF-8 Plain Text
Язык : Russian
Default : Да
Forced : Нет

Текст #2
Идентификатор : 5
Формат : UTF-8
Идентификатор кодека : S_TEXT/UTF8
Идентификатор кодека/Информация : UTF-8 Plain Text
Язык : English
Default : Нет
Forced : Нет
Свернуть
Скриншоты

Изображение
Изображение
Изображение
Изображение
Изображение
Свернуть
Не в сети
Профиль  
Начать новую темуОтветить на тему  [ 1 сообщение ] 
Вы не можете начинать темы
Вы не можете отвечать на сообщения
Вы не можете редактировать свои сообщения
Вы не можете удалять свои сообщения