Правила форума

  • В этом разделе создание новых тем Запрещено.
  • Для создания новых тем пользуйтесь Корневым разделом DVD и HD фильмы.
Начать новую темуОтветить на тему  [ Сообщений: 5 ] 
Торрент файл
Размер: 8.23 GB • Зарегистрирован: 4 года 11 месяцев • Статус: Проверено
Скачан: 176 раз • Желающих скачать: 0 • Поблагодарили: 36 раз
 Раздают: 0  |  0 KB/s  ]   Качают: 0  |  0 KB/s  ] 
 Полного источника не было 2 года 10 месяцев 
Сообщения
 Добавлено: 2011-12-22 21:32
Top-releaser
Аватара пользователя
Стаж: 7 лет 3 месяца
Возраст: 25
Сообщений: 1036
Спасибок: 2694
Лайков: 9
Челюсти 3D
Shark Night


«Terror runs deep.»

Изображение


Год выхода: 2011
Страна: США

Жанр: ужасы, триллер
Продолжительность: 01:30:31
Перевод: Дублированное [лицензия]

Режиссер: Дэвид Р. Эллис
Сценарий: Уилл Хэйес, Джесси Студенберг
Продюсер: Крис Бриггс, Майк Флайсс, Линетт Хауэлл, ...
Оператор: Гэри Кэпо
Композитор: Грэм Ревелл

В ролях: Сара Пэкстон, Дастин Миллиган, Крис Кармак, Кэтрин МакФи, Донал Лог, Крис Зилка, Алисса Диаз, Джоэль Мур, Джошуа Леонард

Описание: Сюжет фильма вращается вокруг группы подростков, учащихся колледжа, которые проводят свои выходные на воде в большом озере. Вскоре они обнаруживают, что зубастая опасность скрывается под ними, в непроглядной глубине…

Изображение

Изображение

Бюджет: $25 000 000
Cборы в США: $18 877 153
Cборы в мире: + $20 222 832 = $39 099 985
Cборы в России: $5 437 182

Качество BDRip 1080p R5
Формат: AVC

Видео: MPEG4 Video (H264) 1920x1040 23.98fps 11.1 Mbps
Аудио 1: Dolby AC3 48000Hz 6ch 448 Kbps
Аудио 2: Dts 48000Hz 6ch 1 510 Kbps

Изображение

MediaInfo
General
Unique ID : 227702280278308476478008339886103141198 (0xAB4DDD2F0F4C66059C15994D2EDD1B4E)
Complete name : H:\Download\Shark.Night.DVD_RG(1080p).mkv
Format : Matroska
Format version : Version 2
File size : 8.23 GiB
Duration : 1h 30mn
Overall bit rate : 13.0 Mbps
Encoded date : UTC 2011-12-22 13:50:47
Writing application : mkvmerge v3.3.0 ('Language') built on Mar 24 2010 14:59:24
Writing library : libebml v0.8.0 + libmatroska v0.9.0

Video
ID : 1
Format : AVC
Format/Info : Advanced Video Codec
Format profile : High@L4.1
Format settings, CABAC : Yes
Format settings, ReFrames : 4 frames
Codec ID : V_MPEG4/ISO/AVC
Duration : 1h 30mn
Bit rate : 11.1 Mbps
Width : 1 920 pixels
Height : 1 040 pixels
Display aspect ratio : 16:9
Frame rate : 23.976 fps
Color space : YUV
Chroma subsampling : 4:2:0
Bit depth : 8 bits
Scan type : Progressive
Bits/(Pixel*Frame) : 0.231
Stream size : 6.83 GiB (83%)
Writing library : x264 core 120 r2120 0c7dab9
Encoding settings : cabac=1 / ref=4 / deblock=1:0:0 / analyse=0x3:0x133 / me=umh / subme=8 / psy=1 / psy_rd=1.00:0.00 / mixed_ref=1 / me_range=16 / chroma_me=1 / trellis=1 / 8x8dct=1 / cqm=0 / deadzone=21,11 / fast_pskip=0 / chroma_qp_offset=-2 / threads=12 / sliced_threads=0 / nr=0 / decimate=1 / interlaced=0 / bluray_compat=0 / constrained_intra=0 / bframes=3 / b_pyramid=2 / b_adapt=2 / b_bias=0 / direct=3 / weightb=1 / open_gop=0 / weightp=2 / keyint=250 / keyint_min=23 / scenecut=40 / intra_refresh=0 / rc_lookahead=50 / rc=2pass / mbtree=1 / bitrate=11064 / ratetol=1.0 / qcomp=0.60 / qpmin=0 / qpmax=69 / qpstep=4 / cplxblur=20.0 / qblur=0.5 / ip_ratio=1.40 / aq=1:1.00
Language : English

Audio #1
ID : 2
Format : AC-3
Format/Info : Audio Coding 3
Mode extension : CM (complete main)
Codec ID : A_AC3
Duration : 1h 30mn
Bit rate mode : Constant
Bit rate : 448 Kbps
Channel(s) : 6 channels
Channel positions : Front: L C R, Side: L R, LFE
Sampling rate : 48.0 KHz
Bit depth : 16 bits
Compression mode : Lossy
Delay relative to video : 14s 700ms
Stream size : 290 MiB (3%)
Language : Russian

Audio #2
ID : 3
Format : DTS
Format/Info : Digital Theater Systems
Codec ID : A_DTS
Duration : 1h 30mn
Bit rate mode : Constant
Bit rate : 1 510 Kbps
Channel(s) : 6 channels
Channel positions : Front: L C R, Side: L R, LFE
Sampling rate : 48.0 KHz
Bit depth : 24 bits
Compression mode : Lossy
Delay relative to video : 11ms
Stream size : 978 MiB (12%)
Language : English


Свернуть
Скриншоты
Изображение
Изображение
Изображение
Изображение
Изображение
Свернуть


Последний раз редактировалось FoTP 2011-12-22 21:40, всего редактировалось 1 раз.
Не в сети
Профиль  
 Добавлено: 2011-12-22 21:35 (спустя 2 минуты)
Модератор
Аватара пользователя
Стаж: 8 лет 1 месяц
Возраст: 20
Сообщений: 32130
Спасибок: 98563
Лайков: 80
глянуть чтоли еще)
Спасибо, стяну)
Не в сети
Профиль  
 Добавлено: 2011-12-27 08:02 (спустя 4 дня)
Стаж: 7 лет 8 месяцев
Сообщений: 9
а он в 3d ?
Не в сети
Профиль  
 Добавлено: 2011-12-30 00:20 (спустя 2 дня 16 часов)
Аватара пользователя
Стаж: 7 лет 4 месяца
Возраст: 35
Сообщений: 184
Спасибок: 143
нет в 4d
_________________
Кто не с Нами, тот против Нас!
Не в сети
Профиль  
 Добавлено: 2014-02-27 20:53 (спустя 2 года 1 месяц)
Стаж: 8 лет
Сообщений: 5
совсем нет раздающих :ny_tik:
Не в сети
Профиль  
Начать новую темуОтветить на тему  [ Сообщений: 5 ] 
Вы не можете начинать темы
Вы не можете отвечать на сообщения
Вы не можете редактировать свои сообщения
Вы не можете удалять свои сообщения