Правила форума

  • В этом разделе создание новых тем Запрещено.
  • Для создания новых тем пользуйтесь Корневым разделом DVD и HD фильмы.
Начать новую темуОтветить на тему  [ Сообщений: 3 ] 
Торрент файл
Размер: 13.12 GB • Зарегистрирован: 5 лет 8 месяцев • Статус: ? Недооформлено
Скачан: 93 раза • Желающих скачать: 0 • Поблагодарили: 26 раз
 Раздают: 0  |  0 KB/s  ]   Качают: 0  |  0 KB/s  ] 
 Полного источника не было 6 часов 
Сообщения
 Добавлено: 2011-04-08 15:28
Стаж: 8 лет 3 месяца
Сообщений: 10
Спасибок: 28
Лайков: 1
Черепашки ниндзя. Трилогия / Teenage Mutant Ninja Turtles 1, 2, 3

Изображение


Год выпуска: 1990
Страна: США, Гонконг
Жанр: фантастика, боевик, комедия, драма, семейный,
Продолжительность: 1ч.33мин.
Перевод: Любительский (одноголосый закадровый) + Оригинальная звуковая дорожка
Субтитры: Английские

Режиссёр: Стив Баррон
В ролях: Джудит Хоаг, Элиас Котеас, Джош Пэйс, Рэймонд Серра, Дэвид Форман, Лейф Тильден, Майкл Терни, Джей Пэттерсон, Джеймс Саито
Описание: Четыре черепашки и крыса в канализационных трубах Нью-Йорка вляпались в радиационные отходы, мутировали и превратились в человеческого роста разумных черепашек, а крыса, которая раньше жила у японского мастера ниндзя-цу, обучила их боевым искусствам.
Черепашки Леонардо, Рафаэль, Микеланджело и Донателло подружились с тележурналисткой и помогли остановить рост молодежной преступности.


Качество: BDRip, 720p
Формат: MKV
Видео кодек: H264 (AVC)
Аудио кодек: AC3 (Dolby Digital)
Видео: 1280x 720, 5276 kbps
Аудио #1: Русский, AC3, 640 kbps [Любительский (одноголосый закадровый)]
Аудио #2: Английский,AC3, 640 kbps [Оригинальная звуковая дорожка]
Субтитры: Английские
MediaInfo
E:\Òîðåíòî\Cherepashki-ningza\Teenage Mutant Ninja Turtles (1990)-1.mkv
General
Unique ID : 249072853715358377424899581009986994350 (0xBB61AFCD90E8CC2F9BC0436E083640AE)
Complete name : E:\Òîðåíòî\Cherepashki-ningza\Teenage Mutant Ninja Turtles (1990)-1.mkv
Format : Matroska
File size : 4.37 GiB
Duration : 1h 33mn
Overall bit rate : 6 689 Kbps
Movie name : Teenage Mutant Ninja Turtles (1990)_720p_RollHD
Encoded date : UTC 2009-09-15 12:32:56
Writing application : mkvmerge v2.5.3 ('Boogie') built on Mar 7 2009 15:00:41
Writing library : libebml v0.7.7 + libmatroska v0.8.1
Video #1
ID : 1
Format : AVC
Format/Info : Advanced Video Codec
Format profile : High@L4.1
Format settings, CABAC : Yes
Format settings, ReFrames : 2 frames
Codec ID : V_MPEG4/ISO/AVC
Duration : 1h 33mn
Bit rate : 5 407 Kbps
Width : 1 280 pixels
Height : 720 pixels
Display aspect ratio : 16:9
Frame rate : 23.976 fps
Color space : YUV
Chroma subsampling : 4:2:0
Bit depth : 8 bits
Scan type : Progressive
Bits/(Pixel*Frame) : 0.245
Stream size : 3.45 GiB (79%)
Writing library : x264 core 68 r1183M f21daff
Encoding settings : cabac=1 / ref=2 / deblock=1:-1:-1 / analyse=0x3:0x113 / me=hex / subme=4 / psy_rd=0.0:0.2 / mixed_ref=0 / me_range=16 / chroma_me=1 / trellis=1 / 8x8dct=1 / cqm=0 / deadzone=21,11 / chroma_qp_offset=-1 / threads=3 / nr=0 / decimate=1 / mbaff=0 / bframes=3 / b_pyramid=0 / b_adapt=1 / b_bias=0 / direct=1 / wpredb=1 / keyint=250 / keyint_min=25 / scenecut=40 / rc=2pass / bitrate=5407 / ratetol=1.0 / qcomp=0.60 / qpmin=10 / qpmax=51 / qpstep=4 / cplxblur=20.0 / qblur=0.5 / ip_ratio=1.40 / pb_ratio=1.30 / aq=1:1.00
Language : English
Audio #2
ID : 2
Format : AC-3
Format/Info : Audio Coding 3
Mode extension : CM (complete main)
Codec ID : A_AC3
Duration : 1h 33mn
Bit rate mode : Constant
Bit rate : 640 Kbps
Channel(s) : 6 channels
Channel positions : Front: L C R, Side: L R, LFE
Sampling rate : 48.0 KHz
Bit depth : 16 bits
Compression mode : Lossy
Stream size : 428 MiB (10%)
Title : Îäíîãîëîñûé çàêàäðîâûé, Þ.Æèâîâ
Language : Russian
Audio #3
ID : 3
Format : AC-3
Format/Info : Audio Coding 3
Mode extension : CM (complete main)
Codec ID : A_AC3
Duration : 1h 33mn
Bit rate mode : Constant
Bit rate : 640 Kbps
Channel(s) : 6 channels
Channel positions : Front: L C R, Side: L R, LFE
Sampling rate : 48.0 KHz
Bit depth : 16 bits
Compression mode : Lossy
Stream size : 428 MiB (10%)
Language : English
Text #4
ID : 4
Format : UTF-8
Codec ID : S_TEXT/UTF8
Codec ID/Info : UTF-8 Plain Text
Title : SDH
Language : English
Свернуть
Скриншоты
Изображение
Изображение
Изображение
Изображение
Изображение
Изображение
Свернуть

Черепашки ниндзя 2 / Teenage Mutant Ninja Turtles II: The Secret of the Ooze

Изображение


Год выпуска: 1991
Продолжительность: 1ч.28мин.
Перевод: Любительский (одноголосый закадровый) + Оригинальная звуковая дорожка
Субтитры: Английские
В ролях: Джудит Хоаг, Элиас Котеас, Джош Пэйс, Рэймонд Серра, Дэвид Форман, Лейф Тильден, Майкл Терни, Джей Пэттерсон, Джеймс Саито
Описание:Леонардо! Рафаэль! Микеланджело! Донателло! Мудрый сэнсей Мастер Сплинтер превратил юных черепашек в одну непобедимую зеленую боевую машину! Настало время!

Качество: BDRip, 720p
Формат: MKV
Видео кодек: H264 (AVC)
Аудио кодек: AC3 (Dolby Digital)
Видео: 1280x 688, 5652 kbps
Аудио #1: Русский, AC3, 640 kbps [Любительский (одноголосый закадровый)]
Аудио #2: Английский,AC3, 640 kbps [Оригинальная звуковая дорожка]
Субтитры: Английские
MediaInfo
E:\Òîðåíòî\Cherepashki-ningza\Teenage Mutant Ninja Turtles II (1991).mkv
General
Unique ID : 226404032416252108592067340053303519812 (0xAA53D49F5236F41C8490FE6C730FEA44)
Complete name : E:\Òîðåíòî\Cherepashki-ningza\Teenage Mutant Ninja Turtles II (1991).mkv
Format : Matroska
File size : 4.38 GiB
Duration : 1h 28mn
Overall bit rate : 7 073 Kbps
Movie name : Teenage Mutant Ninja Turtles II: The Secret of the Ooze (1991)_720p_RollHD
Encoded date : UTC 2009-09-15 23:05:30
Writing application : mkvmerge v2.5.3 ('Boogie') built on Mar 7 2009 15:00:41
Writing library : libebml v0.7.7 + libmatroska v0.8.1
Video #1
ID : 1
Format : AVC
Format/Info : Advanced Video Codec
Format profile : High@L4.1
Format settings, CABAC : Yes
Format settings, ReFrames : 2 frames
Codec ID : V_MPEG4/ISO/AVC
Duration : 1h 28mn
Bit rate : 5 791 Kbps
Width : 1 280 pixels
Height : 688 pixels
Display aspect ratio : 1.860
Frame rate : 23.976 fps
Color space : YUV
Chroma subsampling : 4:2:0
Bit depth : 8 bits
Scan type : Progressive
Bits/(Pixel*Frame) : 0.274
Stream size : 3.50 GiB (80%)
Writing library : x264 core 68 r1183M f21daff
Encoding settings : cabac=1 / ref=2 / deblock=1:0:0 / analyse=0x3:0x113 / me=hex / subme=4 / psy_rd=0.0:0.0 / mixed_ref=0 / me_range=16 / chroma_me=1 / trellis=1 / 8x8dct=1 / cqm=0 / deadzone=21,11 / chroma_qp_offset=0 / threads=3 / nr=0 / decimate=1 / mbaff=0 / bframes=3 / b_pyramid=0 / b_adapt=1 / b_bias=0 / direct=1 / wpredb=1 / keyint=250 / keyint_min=25 / scenecut=40 / rc=2pass / bitrate=5791 / ratetol=1.0 / qcomp=0.60 / qpmin=10 / qpmax=51 / qpstep=4 / cplxblur=20.0 / qblur=0.5 / ip_ratio=1.40 / pb_ratio=1.30 / aq=1:1.00
Language : English
Audio #2
ID : 2
Format : AC-3
Format/Info : Audio Coding 3
Mode extension : CM (complete main)
Codec ID : A_AC3
Duration : 1h 28mn
Bit rate mode : Constant
Bit rate : 640 Kbps
Channel(s) : 6 channels
Channel positions : Front: L C R, Side: L R, LFE
Sampling rate : 48.0 KHz
Bit depth : 16 bits
Compression mode : Lossy
Stream size : 405 MiB (9%)
Title : Îäíîãîëîñûé çàêàäðîâûé, Þ.Æèâîâ
Language : Russian
Audio #3
ID : 3
Format : AC-3
Format/Info : Audio Coding 3
Mode extension : CM (complete main)
Codec ID : A_AC3
Duration : 1h 28mn
Bit rate mode : Constant
Bit rate : 640 Kbps
Channel(s) : 6 channels
Channel positions : Front: L C R, Side: L R, LFE
Sampling rate : 48.0 KHz
Bit depth : 16 bits
Compression mode : Lossy
Stream size : 405 MiB (9%)
Language : English
Text #4
ID : 4
Format : UTF-8
Codec ID : S_TEXT/UTF8
Codec ID/Info : UTF-8 Plain Text
Title : SDH
Language : English
Свернуть
Скриншоты
Изображение
Изображение
Изображение
Изображение
Изображение
Изображение
Изображение
Свернуть


Черепашки ниндзя 3 / Teenage Mutant Ninja Turtles III

Изображение

Год выпуска: 1993
Продолжительность: 1ч.35мин.
Перевод: Любительский (одноголосый закадровый) + Оригинальная звуковая дорожка
Субтитры: Английские
В ролях: Элиас Котеас, Пейдж Турко, Стюарт Уилсон, Саб Симоно, Вивиан Ву, Марк Казо, Мэтт Хилл, Джим Рапоса, Дэвид Фрайзер, Генри Хаяши
Описание: Эйприл где-то на распродаже купила Сплинтеру старинный японский скипетр, и ещё всяких других подарков для своих друзей черепашек. Как выяснилось, этот скипетр — не просто обычный антиквариат, а прообраз машины времени. Но он работает только в том случае, когда вес путешественников во времени одинаков с обоих сторон. Так случилось, что скипетр перенес Эйприл в феодальную Японию, в 1393-й год. Следом за ней отправились и черепашки, но вот беда, вместо того, чтобы попасть в храм, где по идее должен был находится скипетр, они оказываются посреди поля сражения. Во всей этой неразберихе теряется Микеланджело со скипетром. И теперь черепашкам нужно не только спасти Эйприл, но и вернуть скипетр. В нашем времени в этот момент тоже совсем не скучно.

Качество: BDRip, 720p
Формат: MKV
Видео кодек: H264 (AVC)
Аудио кодек: AC3 (Dolby Digital)
Видео: 1280x 720, 5126 kbps
Аудио #1: Русский, AC3, 640 kbps [Любительский (одноголосый закадровый)]
Аудио #2: Английский,AC3, 640 kbps [Оригинальная звуковая дорожка]
Субтитры: Английские
MediaInfo
E:\Òîðåíòî\Cherepashki-ningza\Teenage Mutant Ninja Turtles III (1993).mkv
General
Unique ID : 209407936022832907474638233588745929719 (0x9D8A805F8B002782A027EDB824F483F7)
Complete name : E:\Òîðåíòî\Cherepashki-ningza\Teenage Mutant Ninja Turtles III (1993).mkv
Format : Matroska
File size : 4.37 GiB
Duration : 1h 35mn
Overall bit rate : 6 536 Kbps
Movie name : Teenage Mutant Ninja Turtles III (1993)_720p_RollHD
Encoded date : UTC 2009-09-16 07:24:17
Writing application : mkvmerge v2.5.3 ('Boogie') built on Mar 7 2009 15:00:41
Writing library : libebml v0.7.7 + libmatroska v0.8.1
Video #1
ID : 1
Format : AVC
Format/Info : Advanced Video Codec
Format profile : High@L4.1
Format settings, CABAC : Yes
Format settings, ReFrames : 2 frames
Codec ID : V_MPEG4/ISO/AVC
Duration : 1h 35mn
Bit rate : 5 253 Kbps
Width : 1 280 pixels
Height : 720 pixels
Display aspect ratio : 16:9
Frame rate : 23.976 fps
Color space : YUV
Chroma subsampling : 4:2:0
Bit depth : 8 bits
Scan type : Progressive
Bits/(Pixel*Frame) : 0.238
Stream size : 3.43 GiB (78%)
Writing library : x264 core 68 r1183M f21daff
Encoding settings : cabac=1 / ref=2 / deblock=1:0:0 / analyse=0x3:0x113 / me=hex / subme=4 / psy_rd=0.0:0.0 / mixed_ref=0 / me_range=16 / chroma_me=1 / trellis=1 / 8x8dct=1 / cqm=0 / deadzone=21,11 / chroma_qp_offset=0 / threads=3 / nr=0 / decimate=1 / mbaff=0 / bframes=3 / b_pyramid=0 / b_adapt=1 / b_bias=0 / direct=1 / wpredb=1 / keyint=250 / keyint_min=25 / scenecut=40 / rc=2pass / bitrate=5253 / ratetol=1.0 / qcomp=0.60 / qpmin=10 / qpmax=51 / qpstep=4 / cplxblur=20.0 / qblur=0.5 / ip_ratio=1.40 / pb_ratio=1.30 / aq=1:1.00
Language : English
Audio #2
ID : 2
Format : AC-3
Format/Info : Audio Coding 3
Mode extension : CM (complete main)
Codec ID : A_AC3
Duration : 1h 35mn
Bit rate mode : Constant
Bit rate : 640 Kbps
Channel(s) : 6 channels
Channel positions : Front: L C R, Side: L R, LFE
Sampling rate : 48.0 KHz
Bit depth : 16 bits
Compression mode : Lossy
Stream size : 438 MiB (10%)
Title : Îäíîãîëîñûé çàêàäðîâûé, Þ.Æèâîâ
Language : Russian
Audio #3
ID : 3
Format : AC-3
Format/Info : Audio Coding 3
Mode extension : CM (complete main)
Codec ID : A_AC3
Duration : 1h 35mn
Bit rate mode : Constant
Bit rate : 640 Kbps
Channel(s) : 6 channels
Channel positions : Front: L C R, Side: L R, LFE
Sampling rate : 48.0 KHz
Bit depth : 16 bits
Compression mode : Lossy
Stream size : 438 MiB (10%)
Language : English
Text #4
ID : 4
Format : UTF-8
Codec ID : S_TEXT/UTF8
Codec ID/Info : UTF-8 Plain Text
Title : SDH
Language : English
Свернуть
Скриншоты
Изображение
Изображение
Изображение
Изображение
Изображение
Изображение
Свернуть


Последний раз редактировалось Stef 2011-11-02 19:19, всего редактировалось 2 раз(а).
 Bashit нравится это.
Не в сети
Профиль  
 Добавлено: 2011-04-17 11:09 (спустя 8 дней)
Аватара пользователя
Стаж: 8 лет 6 месяцев
Возраст: 38
Сообщений: 1674
Спасибок: 16600
Лайков: 5
Добавьте отчет MediaInfo к каждому фильму (под спойлером).

[Инструкция] Как получить информацию по видео файлу
Не в сети
Профиль  
 Добавлено: 2014-03-01 23:57 (спустя 2 года 10 месяцев)
Стаж: 2 года 10 месяцев
Сообщений: 2
:ti_pa:
Не в сети
Профиль  
Начать новую темуОтветить на тему  [ Сообщений: 3 ] 
Вы не можете начинать темы
Вы не можете отвечать на сообщения
Вы не можете редактировать свои сообщения
Вы не можете удалять свои сообщения