Правила форума

  • В этом разделе создание новых тем Запрещено.
  • Для создания новых тем пользуйтесь Корневым разделом DVD и HD фильмы.
Начать новую темуОтветить на тему  [ Сообщений: 2 ] 
Торрент файл
Размер: 7.24 GB • Зарегистрирован: 4 года 11 месяцев • Статус: Проверено
Скачан: 36 раз • Желающих скачать: 0 • Поблагодарили: 9 раз
 Раздают: 0  |  0 KB/s  ]   Качают: 0  |  0 KB/s  ] 
 Полного источника не было 2 года 7 месяцев 
Сообщения
 Добавлено: 2011-12-26 20:10
Аватара пользователя
Стаж: 8 лет 3 месяца
Возраст: 25
Сообщений: 167
Спасибок: 647

Черная книга / Zwartboek

Изображение


Год выпуска: 2006
Страна: Германия, Великобритания, Нидерланды, Бельгия
Слоган: «Храбрость, чтобы сопротивляться, сила духа, чтобы выжить»
Жанр: триллер, драма, военный
Продолжительность: 02:25:38
Перевод: Оригинальный, Профессиональный (полное дублирование)
Режиссер: Пол Верховен
Сценарий: Херард Сутеман, Пол Верховен
Продюсер: Сан Фу Малта, Дженс Мейер, Ерун Бекер
Оператор: Карл Вальтер Линденлауб
Композитор: Энн Дадли
В ролях: Кэрис Ван Хаутен, Себастьян Кох, Том Хоффман, Халина Рейн, Вальдемар Кобус
Бюджет: $21 000 000
Сборы в США: $4 398 532
Сборы в России: $187 906
Сборы в мире: $24 144 163
Описание: Вторая мировая война. Рахиль Штайн - немка еврейского происхождения. Спасаясь от фашистского геноцида, она находит пристанище в Нидерландах, где присоединяется к движению Сопротивления. Рахиль непременно должна найти предателя, по вине которого погибла вся ее семья. Отныне месть - смысл ее жизни
Изображение
MPAA: Изображение
Мировая премьера: 1 сентября 2006
Релиз на DVD: 13 августа 2009, «Парадиз Видео»
Раздача группы: Изображение
Качество: BDRip, 720p
Формат: Matroska
Видео: AVC; 1280x544 (2.35:1); 4518 Kbps; 23,976 fps; 0,271 bit/pixel
Аудио №1: Russian; DTS; 754 Kbps; CBR; 6 ch; 24 bit
Аудио №2: German; DTS; 1509 Kbps; CBR; 6 ch; 24 bit
Аудио №3: English; AC3; 192 Kbps; CBR; 2 ch
[комментарии режиссёра]
Субтитры №1: Russian
Субтитры №2: English

"Знаете ли Вы, что..."
  • Идея создания фильма родилась у режиссёра Пол Верховена и сценариста Херарда Сутемана во время подготовки к съёмкам «Солдат королевы» (1977). Вместо того чтобы внедрить дополнительную сюжетную линию в картину, они решили создать в будущем самостоятельный фильм, работа над сценарием которого шла на протяжении почти двух десятков лет.
  • Работа над фильмом была на грани полного срыва в 2004 году, когда ряд зарубежных компаний так и не выполнил свои обязательства по финансированию проекта. Производство было возобновлено только осенью 2005 года, когда необходимый бюджет в 16 млн евро всё-таки был обеспечен. Более 2 млн евро из этой суммы внесли различные голландские общественные организации и министерство образования и культуры. Из-за столь серьезной задержки у продюсеров оставалось немногим более двух месяцев непосредственно на съёмочный процесс.
  • С бюджетом в более чем 16 миллионов евро фильм стал самым дорогим проектом за всю историю голландского кинематографа.
  • Фильм был выдвинут от Голландии на Оскар в категории лучший фильм на иностранном языке, прошёл в шорт-лист из девяти претендентов, но остался за бортом финальной пятёрки номинантов.
  • Многие актёры в киноленте разговаривают более чем на одном языке. Сложнее всего пришлось Кэрис Ван Хаутен, которая разговаривает на четырёх разных языках. В большей части фильма она говорит на родном голландском, в сценах в Израиле на иврите, с немецкими солдатами на немецком и с канадскими военными на английском.
  • Серьёзная задержка в производстве фильма повлекла за собой то, что исполнительница главной роли Кэрис Ван Хаутен уже дала согласие сыграть в театральной постановке. Театральная компания подала иск к продюсерам фильма, требуя компенсацию за перенос объявленной пьесы, и получила 60 тысяч евро в качестве возмещения понесённого ущерба.
  • Роль лидера сопротивления Гербена Куйперса первоначально должен был сыграть Гийс Шолтен ван Ашат, но из-за вынужденной задержки с производством фильма актёр оказался занят в театральной постановке. В поисках подходящей замены режиссёр обратил внимание на Дерека де Линта, с которым уже работал ранее 28 лет назад на съемках «Солдат королевы».
  • Многим членам съёмочной группы пришлось прождать более года для того, чтобы получить причитающийся им гонорар за проделанную работу, поскольку продюсеры полностью израсходовали все средства ещё до того, как производство было полностью завершено.
  • Самая масштабная в фильме сцена освобождения Гааги была снята с привлечением более чем 1200 человек массовки.
  • Одновременно с фильмом 1 сентября 2006 года вышла его новеллизация, которую написал голландский писатель Лоренс Аббинк Спайнк. Книга сопровождалась иллюстрациями в виде кадров из фильма и послесловием режиссёра Пола Верховена и сценариста Херарда Сутемана.
Свернуть

Награды и номинации

Сатурн, 2008 год
Номинации (2):
Лучшая актриса (Кэрис Ван Хаутен)
Лучший иностранный фильм


Британская академия, 2007 год
Номинации (1):
Лучший фильм на иностранном языке


Европейская киноакадемия, 2007 год
Номинации (2):
Лучшая женская роль (Кэрис Ван Хаутен)
Приз зрительских симпатий за лучший фильм


Венецианский кинофестиваль, 2006 год
Победитель (1):
Приз молодежного кино за лучший иностранный фильм
Номинации (1):
Золотой лев
Свернуть

Скриншоты

Изображение
Изображение
Изображение
Изображение
Свернуть


"MediaInfo"

Общее
Уникальный идентификатор : 202349849957814466965499266415154221035 (0x983B29DCF1E636459D2969F37CC0CFEB)
Полное имя : C:\Users\SiAlA\Downloads\Релизы\Chernaja.kniga.[R.G.Daredevil].mkv
Формат : Matroska
Версия формата : Version 2
Размер файла : 7,24 Гбайт
Продолжительность : 2 ч. 25 м.
Общий поток : 7117 Кбит/сек
Название фильма : Black Book (2006) - Zwartboek
Дата кодирования : UTC 2010-07-26 00:24:47
Программа кодирования : mkvmerge v3.1.0 ('Happy up here') built on Jan 19 2010 12:09:24
Библиотека кодирования : libebml v0.7.9 + libmatroska v0.8.1

Видео
Идентификатор : 1
Формат : AVC
Формат/Информация : Advanced Video Codec
Профиль формата : High@L5.1
Параметр CABAC формата : Да
Параметр ReFrames формата : 16 кадров
Идентификатор кодека : V_MPEG4/ISO/AVC
Продолжительность : 2 ч. 25 м.
Битрейт : 4660 Кбит/сек
Ширина : 1280 пикселей
Высота : 544 пикселя
Соотношение сторон : 2,35:1
Частота кадров : 23,976 кадра/сек
Цветовое пространство : YUV
Субдискретизация насыщенности : 4:2:0
Битовая глубина : 8 бит
Тип развёртки : Прогрессивная
Бит/(Пиксели*Кадры) : 0.279
Размер потока : 4,60 Гбайт (63%)
Заголовок : BDRip.720p
Библиотека кодирования : x264 core 57 svn-719
Настройки программы : cabac=1 / ref=16 / deblock=1:0:0 / analyse=0x3:0x133 / me=umh / subme=7 / brdo=1 / mixed_ref=1 / me_range=16 / chroma_me=1 / trellis=2 / 8x8dct=1 / cqm=2 / deadzone=21,11 / chroma_qp_offset=0 / threads=2 / nr=0 / decimate=0 / mbaff=0 / bframes=5 / b_pyramid=1 / b_adapt=1 / b_bias=0 / direct=3 / wpredb=1 / bime=1 / keyint=250 / keyint_min=25 / scenecut=40(pre) / rc=2pass / bitrate=4660 / ratetol=1.0 / rceq='blurCplx^(1-qComp)' / qcomp=0.60 / qpmin=10 / qpmax=51 / qpstep=4 / cplxblur=20.0 / qblur=0.5 / vbv_maxrate=25000 / vbv_bufsize=25000 / ip_ratio=1.40 / pb_ratio=1.30 / zones=199060,210000,q=25
Язык : English
Default : Да
Forced : Нет

Аудио #1
Идентификатор : 2
Формат : DTS
Формат/Информация : Digital Theater Systems
Идентификатор кодека : A_DTS
Продолжительность : 2 ч. 25 м.
Вид битрейта : Постоянный
Битрейт : 755 Кбит/сек
Каналы : 6 каналов
Расположение каналов : Front: L C R, Side: L R, LFE
Частота : 48,0 КГц
Битовая глубина : 24 бит
Метод сжатия : С потерями
Размер потока : 786 Мбайт (11%)
Заголовок : Русский (дубляж)
Язык : Russian
Default : Да
Forced : Нет

Аудио #2
Идентификатор : 3
Формат : DTS
Формат/Информация : Digital Theater Systems
Идентификатор кодека : A_DTS
Продолжительность : 2 ч. 25 м.
Вид битрейта : Постоянный
Битрейт : 1510 Кбит/сек
Каналы : 6 каналов
Расположение каналов : Front: L C R, Side: L R, LFE
Частота : 48,0 КГц
Битовая глубина : 24 бит
Метод сжатия : С потерями
Размер потока : 1,54 Гбайт (21%)
Заголовок : Оригинал
Язык : German
Default : Нет
Forced : Нет

Аудио #3
Идентификатор : 4
Формат : AC-3
Формат/Информация : Audio Coding 3
Профиль формата : Dolby Digital
Расширение режима : CM (complete main)
Идентификатор кодека : A_AC3
Продолжительность : 2 ч. 25 м.
Вид битрейта : Постоянный
Битрейт : 192 Кбит/сек
Каналы : 2 канала
Расположение каналов : Front: L R
Частота : 48,0 КГц
Битовая глубина : 16 бит
Метод сжатия : С потерями
Размер потока : 200 Мбайт (3%)
Заголовок : Комментарии режиссера (Пол Верховен)
Язык : English
Default : Нет
Forced : Нет

Текст #1
Идентификатор : 5
Формат : UTF-8
Идентификатор кодека : S_TEXT/UTF8
Идентификатор кодека/Информация : UTF-8 Plain Text
Язык : Russian
Default : Да
Forced : Нет

Текст #2
Идентификатор : 6
Формат : UTF-8
Идентификатор кодека : S_TEXT/UTF8
Идентификатор кодека/Информация : UTF-8 Plain Text
Язык : English
Default : Нет
Forced : Нет

Свернуть
Не в сети
Профиль  
 Добавлено: 2012-06-13 08:37 (спустя 5 месяцев 17 дней)
Стаж: 5 лет 11 месяцев
Сообщений: 19
Автор,раздай,очень прошу :ny_tik:
Не в сети
Профиль  
Начать новую темуОтветить на тему  [ Сообщений: 2 ] 
Вы не можете начинать темы
Вы не можете отвечать на сообщения
Вы не можете редактировать свои сообщения
Вы не можете удалять свои сообщения