Правила форума

  • В этом разделе создание новых тем Запрещено.
  • Для создания новых тем пользуйтесь Корневым разделом DVD и HD фильмы.
Начать новую темуОтветить на тему  [ Сообщений: 3 ] 
Торрент файл
Размер: 3.09 GB • Зарегистрирован: 1 год 1 месяц • Статус: T Временный релиз
Скачан: 141 раз • Желающих скачать: 0 • Поблагодарили: 15 раз
 Раздают: 1  |  0 KB/s  ]   Качают: 0  |  0 KB/s  ] 
Сообщения
 Добавлено: 2015-10-28 14:25
RG-ELEKTRO
Аватара пользователя
Стаж: 2 года 3 месяца
Сообщений: 7928
Спасибок: 53802
Лайков: 3304
Черная месса / Black Mass



Изображение


Год выпуска: 2015
Страна: США
Жанр: Драма, криминал, биография
Продолжительность: 02:02:32
Перевод: Профессиональный (полное дублирование) (звук с TS) + Оригинальная звуковая дорожка
Субтитры: корейские (Вшитые)

Режиссёр: Скотт Купер
В ролях: Джонни Депп, Джоэл Эдгертон, Бенедикт Камбербэтч, Кевин Бейкон, Джесси Племонс, Питер Сарсгаард, Кори Столл, Дакота Джонсон, Рори Кокрейн, Дэвид Харбор
Описание: Картина расскажет об Уайти Булджере, знаменитом бостонском гангстере, который 16 лет находился в бегах и был арестован в июне 2011 года в Санта-Монике. Булджер, которому уже за 80, обвинялся в рэкете, был замешан в 19 убийствах и в то же время работал информатором на ФБР. Чтобы не попасть за решетку, он исчез в 1995 году и 16 лет успешно скрывался от правосудия.

Изображение Изображение
Качество: WEBRip 720p
Формат: MKV
Видео кодек: MPEG-4 AVC
Аудио кодек: MP3 / AC3
Видео: 1280x528 (2.40:1), 23.962 fps, MPEG-4 AVC ~3 105 kbps avg, 0.192 bit/pixel
Аудио #1: 44.1 kHz, MPEG Layer 3, 2 ch, ~320 kbps avg [Профессиональный (полное дублирование) | звук с TS]
Аудио #2: AC3, 2 ch, 192 Кбит/сек / Английскийский [Оригинальная звуковая дорожка]
Субтитры: корейские (Вшитые)

"MI"
General
Unique ID : 205037962011180739983266828020325269738 (0x9A40E00511A8E719890650EECC77C0EA)
Complete name : BlackMess.rustorka.WEBRip.720p.mkv
Format : Matroska
Format version : Version 4 / Version 2
File size : 3.09 GiB
Duration : 2h 2mn
Overall bit rate : 3 613 Kbps
Movie name : Rustorka
Encoded date : UTC 2015-10-29 20:53:08
Writing application : mkvmerge v8.3.0 ('Over the Horizon') 64bit
Writing library : libebml v1.3.1 + libmatroska v1.4.2

Video
ID : 1
Format : AVC
Format/Info : Advanced Video Codec
Format profile : High@L4.1
Format settings, CABAC : Yes
Format settings, ReFrames : 4 frames
Codec ID : V_MPEG4/ISO/AVC
Duration : 2h 2mn
Bit rate : 3 105 Kbps
Width : 1 280 pixels
Height : 528 pixels
Display aspect ratio : 2.40:1
Frame rate mode : Constant
Frame rate : 23.976 fps
Color space : YUV
Chroma subsampling : 4:2:0
Bit depth : 8 bits
Scan type : Progressive
Bits/(Pixel*Frame) : 0.192
Stream size : 2.59 GiB (84%)
Title : BlackMess.rustorka.WEBRip.720p
Writing library : x264 core 142 r2479 dd79a61
Encoding settings : cabac=1 / ref=1 / deblock=1:0:0 / analyse=0x3:0x113 / me=hex / subme=2 / psy=1 / psy_rd=1.00:0.00 / mixed_ref=0 / me_range=16 / chroma_me=1 / trellis=0 / 8x8dct=1 / cqm=0 / deadzone=21,11 / fast_pskip=1 / chroma_qp_offset=0 / threads=12 / lookahead_threads=4 / sliced_threads=0 / nr=0 / decimate=1 / interlaced=0 / bluray_compat=0 / constrained_intra=0 / bframes=3 / b_pyramid=2 / b_adapt=1 / b_bias=0 / direct=1 / weightb=1 / open_gop=0 / weightp=1 / keyint=240 / keyint_min=24 / scenecut=40 / intra_refresh=0 / rc_lookahead=10 / rc=abr / mbtree=1 / bitrate=3105 / ratetol=1.0 / qcomp=0.60 / qpmin=0 / qpmax=69 / qpstep=4 / vbv_maxrate=62500 / vbv_bufsize=78125 / nal_hrd=none / filler=0 / ip_ratio=1.40 / aq=1:1.00
Default : Yes
Forced : No
Color range : Limited
Color primaries : BT.709
Transfer characteristics : BT.709
Matrix coefficients : BT.709

Audio #1
ID : 2
Format : MPEG Audio
Format version : Version 1
Format profile : Layer 3
Codec ID : A_MPEG/L3
Codec ID/Hint : MP3
Duration : 2h 2mn
Bit rate mode : Constant
Bit rate : 320 Kbps
Channel(s) : 2 channels
Sampling rate : 44.1 KHz
Compression mode : Lossy
Delay relative to video : -83ms
Stream size : 281 MiB (9%)
Title : BlackMess.rustorka.WEBRip.720p
Default : Yes
Forced : No

Audio #2
ID : 3
Format : AC-3
Format/Info : Audio Coding 3
Mode extension : CM (complete main)
Format settings, Endianness : Big
Codec ID : A_AC3
Duration : 2h 2mn
Bit rate mode : Constant
Bit rate : 192 Kbps
Channel(s) : 2 channels
Channel positions : Front: L R
Sampling rate : 48.0 KHz
Bit depth : 16 bits
Compression mode : Lossy
Delay relative to video : -5ms
Stream size : 168 MiB (5%)
Title : BlackMess.rustorka.WEBRip.720p
Language : English
Default : No
Forced : No

Text
ID : 4
Format : UTF-8
Codec ID : S_TEXT/UTF8
Codec ID/Info : UTF-8 Plain Text
Title : BlackMess.WEBRip.720p
Default : Yes
Forced : Yes
Свернуть

Скриншоты
Изображение
Изображение
Изображение
Свернуть
Изображение


Изображение Изображение
Не в сети
Профиль  
 Добавлено: 2015-10-31 11:09 (спустя 2 дня 20 часов)
RG-ELEKTRO
Аватара пользователя
Стаж: 2 года 3 месяца
Сообщений: 7928
Спасибок: 53802
Лайков: 3304
Заменен на дубляж (звук с TS)
_________________
Не ищите меня в "ВКонтакте", в "Одноклассниках" меня нет - я на трекерах сижу!
Не в сети
Профиль  
 Добавлено: 2015-11-02 18:12 (спустя 2 дня 7 часов)
Музыкоед
Аватара пользователя
Стаж: 7 лет 4 месяца
Сообщений: 2111
Лайков: 466
Что-то Депп затеял воскрешать на экране гангстерские легенды. Джонни Ди, Уайти Булджер. Ну, здесь ему - непаханное поле: список потенциальных персонажей уходит за горизонт. Причем портретное сходство, думаю, не имеет значения: имена этих людей известны гораздо больше, чем их портреты.
Не в сети
Профиль  
Начать новую темуОтветить на тему  [ Сообщений: 3 ] 
Вы не можете начинать темы
Вы не можете отвечать на сообщения
Вы не можете редактировать свои сообщения
Вы не можете удалять свои сообщения