Правила форума

  • В этом разделе создание новых тем Запрещено.
  • Для создания новых тем пользуйтесь Корневым разделом DVD и HD фильмы.
Начать новую темуОтветить на тему  [ 1 сообщение ] 
Торрент файл
Размер: 5.8 GB • Зарегистрирован: 10 месяцев • Статус: Проверено
Скачан: 46 раз • Желающих скачать: 0 • Поблагодарили: 13 раз
 Раздают: 1  |  0 KB/s  ]   Качают: 0  |  0 KB/s  ] 
Сообщения
 Добавлено: 2016-01-19 23:42
DVD Release Group
Аватара пользователя
Стаж: 7 лет 1 месяц
Сообщений: 3569
Спасибок: 247672
Лайков: 1020
Черная месса

Black Mass


Изображение


Год выпуска: 2015
Страна: США
Жанр: Драма, криминал, биография
Продолжительность: 02:02:36
Перевод: Профессиональный (полное дублирование)
Субтитры: Английские, Русские форсированные
Режиссер: Скотт Купер
В ролях: Джонни Депп, Джоэл Эдгертон, Бенедикт Камбербэтч, Кевин Бейкон, Джесси Племонс, Питер Сарсгаард, Кори Столл, Дакота Джонсон, Рори Кокрейн, Дэвид Харбор
Описание: Картина расскажет об Уайти Булджере, знаменитом бостонском гангстере, который 16 лет находился в бегах и был арестован в июне 2011 года в Санта-Монике. Булджер, которому уже за 80, обвинялся в рэкете, был замешан в 19 убийствах и в то же время работал информатором на ФБР. Чтобы не попасть за решетку, он исчез в 1995 году и 16 лет успешно скрывался от правосудия.
ИзображениеИзображение
Качество: BDRip 720p
Формат: MKV
Видео кодек: H.264
Аудио кодек: AC3, DTS
Видео: 1280x536 23.98fps 4873kbps
Аудио:
Аудио Rus: AC3 48kHz 6ch 384kbps
Аудио Eng: DTS 48kHz 6ch 1510kbps
"MediaInfo"
Формат : Matroska
Версия формата : Version 4 / Version 2
Размер файла : 5,80 Гбайт
Продолжительность : 2 ч. 2 м.
Общий поток : 6766 Кбит/сек
Дата кодирования : UTC 2016-01-19 19:15:45
Программа кодирования : mkvmerge v8.3.0 ('Over the Horizon') 64bit
Библиотека кодирования : libebml v1.3.1 + libmatroska v1.4.2
DURATION : 01:53:45.151000000
NUMBER_OF_FRAMES : 2086
NUMBER_OF_BYTES : 69810
_STATISTICS_WRITING_APP : mkvmerge v8.3.0 ('Over the Horizon') 64bit
_STATISTICS_WRITING_DATE_UTC : 2016-01-19 19:15:45
_STATISTICS_TAGS : BPS DURATION NUMBER_OF_FRAMES NUMBER_OF_BYTES

Видео
Идентификатор : 1
Формат : AVC
Формат/Информация : Advanced Video Codec
Профиль формата : High@L4.1
Параметр CABAC формата : Да
Параметр ReFrames формата : 5 кадров
Идентификатор кодека : V_MPEG4/ISO/AVC
Продолжительность : 2 ч. 2 м.
Битрейт : 4873 Кбит/сек
Ширина : 1280 пикселей
Высота : 536 пикселей
Соотношение сторон : 2,40:1
Режим частоты кадров : Постоянный
Частота кадров : 23,976 кадра/сек
Цветовое пространство : YUV
Субдискретизация насыщенности : 4:2:0
Битовая глубина : 8 бит
Тип развёртки : Прогрессивная
Бит/(Пиксели*Кадры) : 0.296
Размер потока : 4,06 Гбайт (70%)
Библиотека кодирования : x264 core 148 r2665 a01e339
Настройки программы : cabac=1 / ref=5 / deblock=1:0:0 / analyse=0x3:0x113 / me=umh / subme=8 / psy=1 / psy_rd=1.00:0.00 / mixed_ref=1 / me_range=16 / chroma_me=1 / trellis=1 / 8x8dct=1 / cqm=0 / deadzone=21,11 / fast_pskip=1 / chroma_qp_offset=-2 / threads=17 / lookahead_threads=2 / sliced_threads=0 / nr=0 / decimate=1 / interlaced=0 / bluray_compat=0 / constrained_intra=0 / bframes=3 / b_pyramid=2 / b_adapt=2 / b_bias=0 / direct=3 / weightb=1 / open_gop=0 / weightp=2 / keyint=250 / keyint_min=23 / scenecut=40 / intra_refresh=0 / rc_lookahead=50 / rc=2pass / mbtree=1 / bitrate=4873 / ratetol=1.0 / qcomp=0.60 / qpmin=0 / qpmax=69 / qpstep=4 / cplxblur=20.0 / qblur=0.5 / ip_ratio=1.40 / aq=1:1.00
Язык : English
Default : Да
Forced : Нет
DURATION : 02:02:36.016000000
NUMBER_OF_FRAMES : 176368
NUMBER_OF_BYTES : 4478942751
_STATISTICS_WRITING_APP : mkvmerge v8.3.0 ('Over the Horizon') 64bit
_STATISTICS_WRITING_DATE_UTC : 2016-01-19 19:15:45
_STATISTICS_TAGS : BPS DURATION NUMBER_OF_FRAMES NUMBER_OF_BYTES

Аудио #1
Идентификатор : 2
Формат : AC-3
Формат/Информация : Audio Coding 3
Расширение режима : CM (complete main)
Параметр Endianness формата : Big
Идентификатор кодека : A_AC3
Продолжительность : 2 ч. 2 м.
Вид битрейта : Постоянный
Битрейт : 384 Кбит/сек
Каналы : 6 каналов
Расположение каналов : Front: L C R, Side: L R, LFE
Частота : 48,0 КГц
Битовая глубина : 16 бит
Метод сжатия : С потерями
Задержка видео : 1 с. 34 мс.
Размер потока : 337 Мбайт (6%)
Язык : Russian
Default : Да
Forced : Нет

Аудио #2
Идентификатор : 3
Формат : DTS
Формат/Информация : Digital Theater Systems
Режим : 16
Параметр Endianness формата : Big
Идентификатор кодека : A_DTS
Продолжительность : 2 ч. 2 м.
Вид битрейта : Постоянный
Битрейт : 1509 Кбит/сек
Каналы : 6 каналов
Расположение каналов : Front: L C R, Side: L R, LFE
Частота : 48,0 КГц
Битовая глубина : 24 бит
Метод сжатия : С потерями
Размер потока : 1,29 Гбайт (22%)
Заголовок : English
Язык : English
Default : Нет
Forced : Нет

Текст #1
Идентификатор : 4
Формат : UTF-8
Идентификатор кодека : S_TEXT/UTF8
Идентификатор кодека/Информация : UTF-8 Plain Text
Заголовок : English
Язык : English
Default : Нет
Forced : Нет

Текст #2
Идентификатор : 5
Формат : UTF-8
Идентификатор кодека : S_TEXT/UTF8
Идентификатор кодека/Информация : UTF-8 Plain Text
Заголовок : English SDH
Язык : English
Default : Нет
Forced : Нет

Меню
00:00:00.000 : en:00:00:00.000
00:09:44.292 : en:00:09:44.292
00:18:27.523 : en:00:18:27.523
00:31:22.130 : en:00:31:22.130
00:41:49.507 : en:00:41:49.507
00:51:58.782 : en:00:51:58.782
00:59:19.890 : en:00:59:19.890
01:09:17.779 : en:01:09:17.779
01:19:53.956 : en:01:19:53.956
01:28:47.906 : en:01:28:47.906
01:39:44.270 : en:01:39:44.270
01:52:18.732 : en:01:52:18.732
01:55:14.407 : en:01:55:14.407
Свернуть

"Скриншоты"
Изображение
Изображение
Изображение
Свернуть
Не в сети
Профиль  
Начать новую темуОтветить на тему  [ 1 сообщение ] 
Вы не можете начинать темы
Вы не можете отвечать на сообщения
Вы не можете редактировать свои сообщения
Вы не можете удалять свои сообщения
cron