Правила форума

  • В этом разделе создание новых тем Запрещено.
  • Для создания новых тем пользуйтесь Корневым разделом DVD и HD фильмы.
Начать новую темуОтветить на тему  [ Сообщений: 2 ] 
Торрент файл
Размер: 8.14 GB • Зарегистрирован: 5 лет 8 месяцев • Статус: Проверено
Скачан: 88 раз • Желающих скачать: 1 • Поблагодарили: 16 раз
 Раздают: 0  |  0 KB/s  ]   Качают: 0  |  0 KB/s  ] 
 Полного источника не было 3 года 2 месяца 
Сообщения
 Добавлено: 2011-04-02 23:44
Модератор релиз-группы
Аватара пользователя
Стаж: 9 лет 1 месяц
Возраст: 97
Сообщений: 11660
Спасибок: 6533
Лайков: 269
Чернильное сердце / Inkheart

Изображение


Год выпуска: 2008
Страна: Германия, США, Великобритания
Слоган: «Любая сказка может стать явью»
Жанр: фэнтези, приключения, семейный
Продолжительность: 01:46:01
Перевод: Профессиональный (дубляж)
Дублеры: Всеволод Кузнецов,Сергей Быстрицкий,Маша Иващенко,Владимир Зайцев,Ирина Савина
Оригинальная звуковая дорожка

Режиссёр: Айэйн Софтли
В ролях: Брендан Фрейзер, Сиенна Гиллори, Элиза Беннетт, Ричард Стрэйндж, Пол Беттани, Хелен Миррен, Рафи Гаврон, Мэтт Кинг, Стив Спайрс, Джэми Формен
Описание: Книжный лекарь Мортимер «Мо» Фольхарт и его 12-летняя дочь Мегги обожают книги. Но кроме этой общей страсти они еще и обладают удивительным даром - оживлять героев со страниц прочтенных ими вслух книг. Но не всё так просто, ведь когда герой из книги оживает, его место на книжных страницах должен занять настоящий человек.
Изображение 5.934 голосов: 9 089

Изображение

Качество: BDRip, 1080p
Формат: MKV
Видео кодек: H264 (AVC)
Аудио кодек: AC3 (Dolby Digital)
Видео: AVC; 1920x816 (2.35); 9873 Kbps; 23,976 fps; 0,257 bpp
Аудио #1: Russian; AC3; 448 Kbps; CBR; 6 ch [Профессиональный (дубляж)]
Аудио #2: English; AC3; 448 Kbps; CBR; 6 ch [Оригинальная звуковая дорожка]
Субтитры: Russian (SRT),Ukrainian (SRT),English (ASS), German (ASS)
Скриншоты
Изображение

Изображение

Изображение

Изображение

Изображение
Свернуть

Mi
Format : Matroska
File size : 8.14 GiB
Duration : 1h 46mn
Overall bit rate : 11.0 Mbps
Encoded date : UTC 2009-05-27 18:33:49
Writing application : mkvmerge v2.8.0 ('The Tree') built on May 9 2009 18:02:06
Writing library : libebml v0.7.7 + libmatroska v0.8.1
Cover : Yes

Video
ID : 1
Format : AVC
Format/Info : Advanced Video Codec
Format profile : High@L4.1
Format settings, CABAC : Yes
Format settings, ReFrames : 5 frames
Format settings, GOP : N=1
Codec ID : V_MPEG4/ISO/AVC
Duration : 1h 46mn
Bit rate : 10.1 Mbps
Width : 1 920 pixels
Height : 816 pixels
Display aspect ratio : 2.35:1
Frame rate : 23.976 fps
Color space : YUV
Chroma subsampling : 4:2:0
Bit depth : 8 bits
Scan type : Progressive
Bits/(Pixel*Frame) : 0.269
Stream size : 7.31 GiB (90%)
Title : InkHeart_1080p
Writing library : x264 core 67 r1137 1fda882
Encoding settings : cabac=1 / ref=5 / deblock=1:0:0 / analyse=0x3:0x113 / me=umh / subme=7 / psy_rd=1.0:0.3 / mixed_ref=1 / me_range=16 / chroma_me=1 / trellis=1 / 8x8dct=1 / cqm=0 / deadzone=21,11 / chroma_qp_offset=-4 / threads=6 / nr=0 / decimate=1 / mbaff=0 / bframes=3 / b_pyramid=1 / b_adapt=1 / b_bias=0 / direct=3 / wpredb=1 / keyint=250 / keyint_min=25 / scenecut=40 / rc=2pass / bitrate=10087 / ratetol=1.0 / qcomp=0.60 / qpmin=10 / qpmax=51 / qpstep=4 / cplxblur=20.0 / qblur=0.5 / ip_ratio=1.40 / pb_ratio=1.30 / aq=1:1.00
Language : English

Audio #1
ID : 2
Format : AC-3
Format/Info : Audio Coding 3
Mode extension : CM (complete main)
Codec ID : A_AC3
Duration : 1h 46mn
Bit rate mode : Constant
Bit rate : 448 Kbps
Channel(s) : 6 channels
Channel positions : Front: L C R, Side: L R, LFE
Sampling rate : 48.0 KHz
Bit depth : 16 bits
Compression mode : Lossy
Stream size : 340 MiB (4%)
Title : Russian AC3 6ch DUB
Language : Russian

Audio #2
ID : 3
Format : AC-3
Format/Info : Audio Coding 3
Mode extension : CM (complete main)
Codec ID : A_AC3
Duration : 1h 46mn
Bit rate mode : Constant
Bit rate : 448 Kbps
Channel(s) : 6 channels
Channel positions : Front: L C R, Side: L R, LFE
Sampling rate : 48.0 KHz
Bit depth : 16 bits
Compression mode : Lossy
Stream size : 340 MiB (4%)
Title : English AC3 6ch
Language : English

Text #1
ID : 4
Format : UTF-8
Codec ID : S_TEXT/UTF8
Codec ID/Info : UTF-8 Plain Text
Title : Russian SRT
Language : Russian

Text #2
ID : 5
Format : UTF-8
Codec ID : S_TEXT/UTF8
Codec ID/Info : UTF-8 Plain Text
Title : Ukrainian SRT
Language : Ukrainian

Text #3
ID : 6
Format : ASS
Codec ID : S_TEXT/ASS
Codec ID/Info : Advanced Sub Station Alpha
Compression mode : Lossless
Title : English ASS
Language : English

Text #4
ID : 7
Format : ASS
Codec ID : S_TEXT/ASS
Codec ID/Info : Advanced Sub Station Alpha
Compression mode : Lossless
Title : German ASS

Свернуть
Не в сети
Профиль  
 Добавлено: 2012-03-10 06:48 (спустя 11 месяцев)
Стаж: 4 года 9 месяцев
Сообщений: 2
прикольный
Не в сети
Профиль  
Начать новую темуОтветить на тему  [ Сообщений: 2 ] 
Вы не можете начинать темы
Вы не можете отвечать на сообщения
Вы не можете редактировать свои сообщения
Вы не можете удалять свои сообщения