Правила форума

  • В этом разделе создание новых тем Запрещено.
  • Для создания новых тем пользуйтесь Корневым разделом DVD и HD фильмы.
Начать новую темуОтветить на тему  [ Сообщений: 10 ] 
Торрент файл
Размер: 14.56 GB • Зарегистрирован: 5 лет 8 месяцев • Статус: Проверено
Скачан: 319 раз • Желающих скачать: 0 • Поблагодарили: 57 раз
 Раздают: 0  |  0 KB/s  ]   Качают: 0  |  0 KB/s  ] 
 Полного источника не было 3 года 1 месяц 
Сообщения
 Добавлено: 2011-03-11 12:14
Bumblebee
Аватара пользователя
Стаж: 7 лет 10 месяцев
Сообщений: 8249
Спасибок: 346395
Лайков: 2732
Изображение

Чёрный лебедь / Black Swan


Год выпуска: 2010
Страна: США,Fox Searchlight Pictures

Жанр: триллер, драма
Продолжительность: 01:48:08
Перевод: Профессиональный (полное дублирование) Лицензия

Режиссер: Даррен Аронофски / Darren Aronofsky
Сценарий: Марк Хейман / Mark Heyman, Андрес Хайнц / Andres Heinz, Джон Дж. МакЛафлин / John J. McLaughlin
Продюсер: Джон Эвнет / Jon Avnet, Брайан Оливер / Brian Oliver, Джозеф П. Рейди / Joseph P. Reidy, Дженнифер Рот / Jennifer Roth, Рик Шварц / Rick Schwartz
Оператор: Мэттью Либатик / Matthew Libatique
Композитор: Клинт Мэнселл / Clint Mansell

В ролях: Натали Портман (Nina Sayers), Мила Кунис (Lily), Венсан Кассель (Thomas Leroy), Барбара Херши (Erica Sayers), Вайнона Райдер (Beth Macintyre), Бенжамен Мильпье (David), Ксения Соло (Veronica), Кристина Анапау (Galina), Джанет Монтгомери (Madeline), Себастиан Стэн (Andrew), Тоби Хемингуэй (Tom), Серджо Торрадо (Sergio)
Дублёры: Наталья Грачева (Nina Sayers), Татьяна Шитова
бюджет: $13 000 000
сборы в США: $103 599 000
сборы в мире: + $147 700 000 = $253 001 609
сборы в России: $3 091 058
зрители: Россия 429.8 тыс.
премьера (мир): 1 сентября 2010
премьера (РФ): 10 февраля 2011, «Фокс»
релиз на DVD: 10 марта 2011, «Двадцатый Век Фокс СНГ», ...
Описание: Сюжет картины строится вокруг примы балетного театра, у которой неожиданно появляется опасная конкурентка, способная отобрать у главной героини все партии. Соперничество усиливается по мере приближения ответственного выступления, которое должно решить все.
Изображение 8.4/10 {24 585 votes} Top: №58  Изображение 8.5/10 (85 208 votes)
Оскар, 2011 год
- Победитель (1):
* Лучшая женская роль (Натали Портман)
- Номинации (4):
* Лучший фильм
* Лучший режиссер (Даррен Аронофски)
* Лучшая работа оператора
* Лучший монтаж
MPAA: R - Лицам до 17 лет обязательно присутствие взрослого
Info
Complete name : Z:\Black.Swan.2010.BDRip.1080p.mkv
Format : Matroska
File size : 14.6 GiB
Duration : 1h 48mn
Overall bit rate : 19.3 Mbps
Encoded date : UTC 2011-03-10 20:38:19
Writing application : mkvmerge v3.4.0 ('Rapunzel') built on May 15 2010 09:38:20
Writing library : libebml v0.8.0 + libmatroska v0.9.0

Video
ID : 1
Format : AVC
Format/Info : Advanced Video Codec
Format profile : High@L4.1
Format settings, CABAC : Yes
Format settings, ReFrames : 5 frames
Format settings, GOP : M=1, N=16
Codec ID : V_MPEG4/ISO/AVC
Duration : 1h 48mn
Bit rate : 17.0 Mbps
Width : 1 920 pixels
Height : 800 pixels
Display aspect ratio : 2.40:1
Frame rate : 23.976 fps
Color space : YUV
Chroma subsampling : 4:2:0
Bit depth : 8 bits
Scan type : Progressive
Bits/(Pixel*Frame) : 0.462
Stream size : 12.6 GiB (86%)
Writing library : x264 core 107 r1766 f9f0035
Encoding settings : cabac=1 / ref=5 / deblock=1:-3:-3 / analyse=0x3:0x113 / me=umh / subme=10 / psy=1 / psy_rd=1.05:0.10 / mixed_ref=1 / me_range=48 / chroma_me=1 / trellis=2 / 8x8dct=1 / cqm=2 / deadzone=21,11 / fast_pskip=0 / chroma_qp_offset=-2 / threads=12 / sliced_threads=0 / nr=0 / decimate=1 / interlaced=0 / constrained_intra=0 / bframes=6 / b_pyramid=2 / b_adapt=2 / b_bias=0 / direct=3 / weightb=1 / open_gop=0 / weightp=2 / keyint=250 / keyint_min=23 / scenecut=40 / intra_refresh=0 / rc_lookahead=50 / rc=2pass / mbtree=1 / bitrate=17025 / ratetol=1.0 / qcomp=0.70 / qpmin=10 / qpmax=51 / qpstep=4 / cplxblur=20.0 / qblur=0.5 / vbv_maxrate=40000 / vbv_bufsize=30000 / ip_ratio=1.40 / aq=1:0.80 / nal_hrd=none
Language : English

Audio #1
ID : 2
Format : DTS
Format/Info : Digital Theater Systems
Codec ID : A_DTS
Duration : 1h 48mn
Bit rate mode : Constant
Bit rate : 755 Kbps
Channel(s) : 6 channels
Channel positions : Front: L C R, Side: L R, LFE
Sampling rate : 48.0 KHz
Bit depth : 24 bits
Compression mode : Lossy
Stream size : 584 MiB (4%)
Title : DTS 5.1 @ 768 kbps - Дублированный
Language : Russian

Audio #2
ID : 3
Format : DTS
Format/Info : Digital Theater Systems
Codec ID : A_DTS
Duration : 1h 48mn
Bit rate mode : Constant
Bit rate : 1 510 Kbps
Channel(s) : 6 channels
Channel positions : Front: L C R, Side: L R, LFE
Sampling rate : 48.0 KHz
Bit depth : 24 bits
Compression mode : Lossy
Stream size : 1.14 GiB (8%)
Title : DTS 5.1 @ 1536 kbps
Language : English

Text #1
ID : 4
Format : UTF-8
Codec ID : S_TEXT/UTF8
Codec ID/Info : UTF-8 Plain Text
Language : Russian

Text #2
ID : 5
Format : UTF-8
Codec ID : S_TEXT/UTF8
Codec ID/Info : UTF-8 Plain Text
Language : Ukrainian

Text #3
ID : 6
Format : UTF-8
Codec ID : S_TEXT/UTF8
Codec ID/Info : UTF-8 Plain Text
Language : English
Свернуть

Качество: BDRip, 1080p
Источник: Black Swan 2010 Blu-ray 1080p AVC DTS-HD MA 5.1-CHDBits
Формат: MKV
Видео: 1920x800 at 23.976 fps, x264, ~17025 kbps avg
Аудио#1: Russian: 48 kHz, DTS, 3/2 (L,C,R,l,r) + LFE ch, ~768.00 kbps avg |Дубляж, R5|
Аудио#2: English: 48 kHz, DTS, 3/2 (L,C,R,l,r) + LFE ch, ~1536.00 kbps avg
Субтитры: Russian (R5), Ukrainian (R5), English
"Знаете ли Вы, что..."
  • По слухам, Рэйчел Вайс и Дженнифер Коннелли могли исполнить главные роли.
  • Винсент Кассель сравнил своего персонажа с Джорджем Баланчином (Георгий Баланчивадзе), один из основателей New York City Ballet.
  • Мэрил Стрип рассматривалась на роль Эрики.
  • Блейк Лайвли проходила пробы на роль Лили.
  • В первой версии сценария героиню Натали Портман звали Александрия.
  • Изначально предполагалось, что действие фильма будет происходить во Франции, а съёмки пройдут в Будапеште, однако от этой идеи пришлось отказаться из-за бюджетных ограничений.
  • Первая версия сценария называлась «The Understudy». История крутилась вокруг Нью-Йоркского театра. Даррену Аронофски понравился сценарий, и он предложил перенести действие в мир балета.
  • Потребовалось десять лет, чтобы сценарий воплотился в фильм.
  • Даррен Аронофски предложил Миле Кунис роль Лили через Skype. Миле даже не пришлось проходить пробы на роль.
  • Для роли в фильме Натали Портман похудела на 9 килограмм.
  • Съёмки всех сцен с участием Вайноны Райдер заняли 10 дней.
  • При подготовке к съёмкам Мила Кунис занималась балетом в течение 3 месяцев, по пять часов в день, семь дней в неделю.
  • В детстве Вайона Райдер пробовала заниматься балетом, но выдержала лишь только первое занятие, так как, по её словам, преподаватель был слишком строг.
  • Клинт Мэнселл написал музыку к фильму, являющуюся вариацией на тему «Лебединого озера» Чайковского.
  • Натали Портман рекомендовала Милу Кунис на роль Лили.
  • Во время съёмок Даррен Аронофски пытался настроить Натали Портман и Милу Кунис друг против друга, чтобы еще больше усилить напряжение между их персонажами.
  • Во время съёмок Натали Портман получила травму ребер. Полное выздоровление заняло 6 недель. Также во время съёмок Натали получила сотрясение мозга.
  • В возрасте 4-13 лет Натали Портман занималась балетом. За год до начала съёмок она возобновила занятия.
Свернуть
"Скриншоты"

Изображение
Изображение
Изображение
Свернуть


Последний раз редактировалось Scylla 2011-03-11 17:39, всего редактировалось 2 раз(а).
Не в сети
Профиль  
 Добавлено: 2011-03-11 12:55 (спустя 40 минут)
Модератор
Аватара пользователя
Стаж: 8 лет 1 месяц
Возраст: 20
Сообщений: 32130
Спасибок: 98576
Лайков: 80
чё за иероглифы на скринах ? :hi_hi_hi:
Не в сети
Профиль  
 Добавлено: 2011-03-11 13:06 (спустя 10 минут)
Bumblebee
Аватара пользователя
Стаж: 7 лет 10 месяцев
Сообщений: 8249
Спасибок: 346395
Лайков: 2732
Костян236
рипер нарисовал, видео без них
_________________
Изображение
Transformers Battle Ops Bumblebee Transformation & Alt Mode Costco Exclusive Limited Edition Metallic Finish
http://www.youtube.com/watch?v=atQ5oDjfj7M#t=68
Свернуть
Не в сети
Профиль  
 Добавлено: 2011-03-11 13:16 (спустя 10 минут)
Аватара пользователя
Стаж: 8 лет 3 месяца
Сообщений: 106
Спасибок: 21
Лайков: 7
720р бы)
Не в сети
Профиль  
 Добавлено: 2011-03-11 18:50 (спустя 5 часов)
Стаж: 7 лет 5 месяцев
Сообщений: 819
Лайков: 107
Scylla
ты лучший/лучшая! :)
Не в сети
Профиль  
 Добавлено: 2011-03-12 18:49 (спустя 23 часа)
Аватара пользователя
Стаж: 8 лет 1 месяц
Сообщений: 23
Спасибок: 2
качество картинки судя по скринам - копия с видеокассеты. чего там на столько гигов непонятно
Не в сети
Профиль  
 Добавлено: 2011-03-13 22:01 (спустя 1 день 3 часа)
Аватара пользователя
Стаж: 7 лет
Сообщений: 3
Качество видео и правда не айс!
Откуда интересно мог взяться BDRip? :du_ma_et:
Инфа с кинопоиска:
релиз на Blu-Ray
14 июля 2011, «Двадцатый Век Фокс СНГ», ...
релиз на DVD
10 марта 2011, «Двадцатый Век Фокс СНГ», ...
Не в сети
Профиль  
 Добавлено: 2011-03-13 22:20 (спустя 19 минут)
Стаж: 7 лет 7 месяцев
Сообщений: 44
Парни а как на флешку фильм закинуть?В Fat32 не кидается а NTFS не читает плеер?Подскажите реально посмотреть такие фильмы с флешки на блюреевском проигрователе?
Не в сети
Профиль  
 Добавлено: 2011-03-14 20:02 (спустя 21 час)
Инквизитор
Аватара пользователя
Стаж: 8 лет 9 месяцев
Сообщений: 3753
Спасибок: 28361
Лайков: 9

leo6429:

В Fat32
разрежь фильм

leo6429:

NTFS не читает плеер
выкинь такой плеер :par_don:
Не в сети
Профиль  
 Добавлено: 2011-03-20 00:25 (спустя 5 дней)
Стаж: 7 лет 3 месяца
Возраст: 33
Сообщений: 194
Лайков: 6
сомнительно, что скорости флешки хватит 1080p смотреть :ne_ne:
Не в сети
Профиль  
Начать новую темуОтветить на тему  [ Сообщений: 10 ] 
Вы не можете начинать темы
Вы не можете отвечать на сообщения
Вы не можете редактировать свои сообщения
Вы не можете удалять свои сообщения