Правила форума

  • В этом разделе создание новых тем Запрещено.
  • Для создания новых тем пользуйтесь Корневым разделом DVD и HD фильмы.
Начать новую темуОтветить на тему  [ 1 сообщение ] 
Торрент файл
Размер: 5.6 GB • Зарегистрирован: 1 год 8 месяцев • Статус: Проверено
Скачан: 28 раз • Желающих скачать: 0 • Поблагодарили: 8 раз
 Раздают: 1  |  0 KB/s  ]   Качают: 0  |  0 KB/s  ] 
Сообщения
 Добавлено: 2015-03-14 08:35
RG-ELEKTRO
Аватара пользователя
Стаж: 2 года 3 месяца
Сообщений: 7928
Спасибок: 53792
Лайков: 3304
Чёрное море / Black Sea


Изображение


Год выпуска: 2014
Страна: Великобритания, США, Россия (Focus Features, Film4, Cowboy Films)
Жанр: триллер, приключения
Продолжительность: 01:49:44
Перевод: Профессиональный (многоголосый закадровый) + Профессиональный (многоголосый закадровый) + Оригинальная звуковая дорожка

Режиссёр: Кевин МакДональд
В ролях: Джуд Лоу, Константин Хабенский, Скут МакНэйри, Бен Мендельсон, Джоди Уиттакер, Тобайас Мензис, Григорий Добрыгин, Паулина Бонева, Джун Смит, Дэвид Трелфолл, Майкл Смайли
Описание: К уволенному капитану подводной лодки обращается таинственный наниматель с предложением возглавить экспедицию по поиску затонувшей у берегов Чёрного моря субмарины, предположительно загруженной золотом. Желая подзаработать на этом деле и отомстить бывшему работодателю, капитан собирает команду из русских и английских моряков и отправляется в плавание, но вскоре понимает, в какое рискованное предприятие ввязался.
Изображение Изображение Изображение
Качество: BDRip 720p
Формат: MKV
Видео кодек: MPEG-4 AVC
Аудио кодек: AC3 / DTS
Видео: MPEG-4 AVC, 4587 Kb/s, 1280x536
Аудио #1: DTS, 755 Kb/s (6 ch) [Профессиональный (многоголосый закадровый)]
Аудио #2: AC3, 448 Kb/s (6 ch) [Профессиональный (многоголосый закадровый)]
Аудио #3: English: DTS, 1510 Kb/s (6 ch) [Оригинальная звуковая дорожка]

"MI"
General
Unique ID : 199616182884610245573184908244049448399 (0x962CADABA2451A0FB3792621768FCDCF)
Complete name : D:\фильмы\Chernoe.More.2014.P.BDRip.720p.ELEKTRI4KA.mkv
Format : Matroska
Format version : Version 4 / Version 2
File size : 5.60 GiB
Duration : 1h 49mn
Overall bit rate : 7 301 Kbps
Movie name : Chernoe.More.2014.P.BDRip.720p.ELEKTRI4KA.uniongang.tv [3imeMachi9e]
Encoded date : UTC 2015-03-12 15:07:14
Writing application : mkvmerge v7.7.0 ('Six Voices') 32bit built on Feb 28 2015 23:23:00
Writing library : libebml v1.3.1 + libmatroska v1.4.2
DURATION : 01:49:44.448000000
NUMBER_OF_FRAMES : 617292
NUMBER_OF_BYTES : 1242608796
_STATISTICS_WRITING_APP : mkvmerge v7.7.0 ('Six Voices') 32bit built on Feb 28 2015 23:23:00
_STATISTICS_WRITING_DATE_UTC : 2015-03-12 15:07:14
_STATISTICS_TAGS : BPS DURATION NUMBER_OF_FRAMES NUMBER_OF_BYTES

Video
ID : 1
Format : AVC
Format/Info : Advanced Video Codec
Format profile : High@L4.1
Format settings, CABAC : Yes
Format settings, ReFrames : 4 frames
Codec ID : V_MPEG4/ISO/AVC
Duration : 1h 49mn
Bit rate : 4 587 Kbps
Width : 1 280 pixels
Height : 536 pixels
Display aspect ratio : 2.40:1
Frame rate mode : Constant
Frame rate : 25.000 fps
Color space : YUV
Chroma subsampling : 4:2:0
Bit depth : 8 bits
Scan type : Progressive
Bits/(Pixel*Frame) : 0.267
Stream size : 3.41 GiB (61%)
Title : Chernoe.More.2014.P.BDRip.720p.ELEKTRI4KA.uniongang.tv [3imeMachi9e]
Writing library : x264 core 119 r2106 07efeb4
Encoding settings : cabac=1 / ref=3 / deblock=1:-3:-3 / analyse=0x3:0x133 / me=umh / subme=10 / psy=1 / psy_rd=1.00:0.10 / mixed_ref=1 / me_range=22 / chroma_me=1 / trellis=2 / 8x8dct=1 / cqm=0 / deadzone=21,11 / fast_pskip=0 / chroma_qp_offset=-3 / threads=12 / sliced_threads=0 / nr=0 / decimate=1 / interlaced=0 / bluray_compat=0 / constrained_intra=0 / bframes=3 / b_pyramid=2 / b_adapt=2 / b_bias=0 / direct=3 / weightb=1 / open_gop=0 / weightp=2 / keyint=250 / keyint_min=25 / scenecut=40 / intra_refresh=0 / rc_lookahead=60 / rc=2pass / mbtree=1 / bitrate=4587 / ratetol=1.0 / qcomp=0.60 / qpmin=0 / qpmax=69 / qpstep=4 / cplxblur=20.0 / qblur=0.5 / ip_ratio=1.40 / aq=1:1.00
Language : English
Default : Yes
Forced : No
DURATION : 01:49:44.440000000
NUMBER_OF_FRAMES : 164611
NUMBER_OF_BYTES : 3773968340
_STATISTICS_WRITING_APP : mkvmerge v7.7.0 ('Six Voices') 32bit built on Feb 28 2015 23:23:00
_STATISTICS_WRITING_DATE_UTC : 2015-03-12 15:07:14
_STATISTICS_TAGS : BPS DURATION NUMBER_OF_FRAMES NUMBER_OF_BYTES

Audio #1
ID : 2
Format : DTS
Format/Info : Digital Theater Systems
Mode : 16
Format settings, Endianness : Big
Codec ID : A_DTS
Duration : 1h 49mn
Bit rate mode : Constant
Bit rate : 755 Kbps
Channel(s) : 6 channels
Channel positions : Front: L C R, Side: L R, LFE
Sampling rate : 48.0 KHz
Bit depth : 24 bits
Compression mode : Lossy
Stream size : 592 MiB (10%)
Title : Chernoe.More.2014.P.BDRip.720p.ELEKTRI4KA.uniongang.tv [3imeMachi9e]
Language : Russian
Default : Yes
Forced : No

Audio #2
ID : 3
Format : AC-3
Format/Info : Audio Coding 3
Mode extension : CM (complete main)
Format settings, Endianness : Big
Codec ID : A_AC3
Duration : 1h 49mn
Bit rate mode : Constant
Bit rate : 448 Kbps
Channel(s) : 6 channels
Channel positions : Front: L C R, Side: L R, LFE
Sampling rate : 48.0 KHz
Bit depth : 16 bits
Compression mode : Lossy
Stream size : 352 MiB (6%)
Title : Chernoe.More.2014.P.BDRip.720p.ELEKTRI4KA.uniongang.tv [3imeMachi9e]
Language : Russian
Default : No
Forced : No

Audio #3
ID : 4
Format : DTS
Format/Info : Digital Theater Systems
Mode : 16
Format settings, Endianness : Big
Codec ID : A_DTS
Duration : 1h 49mn
Bit rate mode : Constant
Bit rate : 1 510 Kbps
Channel(s) : 6 channels
Channel positions : Front: L C R, Side: L R, LFE
Sampling rate : 48.0 KHz
Bit depth : 24 bits
Compression mode : Lossy
Stream size : 1.16 GiB (21%)
Language : English
Default : No
Forced : No

Свернуть

Скриншоты
Изображение
Изображение
Изображение
Свернуть


Изображение Изображение
Не в сети
Профиль  
Начать новую темуОтветить на тему  [ 1 сообщение ] 
Вы не можете начинать темы
Вы не можете отвечать на сообщения
Вы не можете редактировать свои сообщения
Вы не можете удалять свои сообщения