Правила форума

  • В этом разделе создание новых тем Запрещено.
  • Для создания новых тем пользуйтесь Корневым разделом DVD и HD фильмы.
Начать новую темуОтветить на тему  [ Сообщений: 4 ] 
Торрент файл
Размер: 2.68 GB • Зарегистрирован: 2 года 10 месяцев • Статус: T Временный релиз
Скачан: 6 раз • Желающих скачать: 0 • Поблагодарили: 5 раз
 Раздают: 0  |  0 KB/s  ]   Качают: 0  |  0 KB/s  ] 
 Полного источника не было 1 год 6 месяцев 
Сообщения
 Добавлено: 2014-01-14 19:18
Аватара пользователя
Стаж: 3 года 6 месяцев
Сообщений: 175
Спасибок: 4258
Лайков: 29
Черное озеро / Озеро нуар / Lake noir

Изображение


Год выпуска: 2011
Страна: США
Жанр: ужасы, драма
Продолжительность: 01:31:55
Перевод: Любительский (одноголосый закадровый) [den904]
Внимание! Ненормативная лексика

Режиссёр: Джеффри Шнайдер
В ролях: Майкл Дж. Гонзалез, Гено Ромо, Боб Олин, Marzell Sampson, Мишель Дами, Jessica Fulks, Nina Tomica, Хезер Уэйкхаус, Кэлвин МакКарти, Phil Dupont
Описание: Группа молодых людей решает весело провести выходные. Для чего парни и девушки отправляются на озеро, расположенное в каких-то дебрях. В общем там развлекаются...а между тем, воды озера хранять страшную тайну...
Изображение
Изображение

Качество: WEB-DL 720p
Формат: MKV
Видео кодек: AVC
Аудио кодек: AC3 (Dolby Digital)
Видео: 3902 kb/s, 1280x714, 23.976 fps, 16:9
Аудио #1: AC3, 192 kb/s (2 ch), 48.0 KHz
Скриншоты
Изображение
Изображение
Изображение
Свернуть

MediaInfo
General
Unique ID : 241912435981784692219206195423130606874 (0xB5FEA3F3B997C12A8E46EC0FE90EDD1A)
Complete name : F:\ФИЛЬМЫ\Lake.Noir.2011.L1.WEBDL.720p.mkv
Format : Matroska
Format version : Version 4 / Version 2
File size : 2.68 GiB
Duration : 1h 31mn
Overall bit rate : 4 177 Kbps
Encoded date : UTC 2014-01-14 11:32:28
Writing application : mkvmerge v6.1.0 ('Old Devil') built on Mar 4 2013 09:10:42
Writing library : libebml v1.3.0 + libmatroska v1.4.0

Video
ID : 1
Format : AVC
Format/Info : Advanced Video Codec
Format profile : High@L3.1
Format settings, CABAC : No
Format settings, ReFrames : 2 frames
Codec ID : V_MPEG4/ISO/AVC
Duration : 1h 31mn
Bit rate : 3 902 Kbps
Width : 1 280 pixels
Height : 714 pixels
Display aspect ratio : 16:9
Frame rate mode : Constant
Frame rate : 23.976 fps
Color space : YUV
Chroma subsampling : 4:2:0
Bit depth : 8 bits
Scan type : Progressive
Bits/(Pixel*Frame) : 0.178
Stream size : 2.51 GiB (93%)
Language : English
Default : Yes
Forced : No
Color primaries : BT.709
Transfer characteristics : BT.709
Matrix coefficients : BT.709

Audio
ID : 2
Format : AC-3
Format/Info : Audio Coding 3
Mode extension : CM (complete main)
Format settings, Endianness : Big
Codec ID : A_AC3
Duration : 1h 31mn
Bit rate mode : Constant
Bit rate : 192 Kbps
Channel(s) : 2 channels
Channel positions : Front: L R
Sampling rate : 48.0 KHz
Bit depth : 16 bits
Compression mode : Lossy
Stream size : 126 MiB (5%)
Language : Russian
Default : Yes
Forced : No
Свернуть
Не в сети
Профиль  
 Добавлено: 2014-01-14 23:36 (спустя 4 часа)
Аватара пользователя
Стаж: 8 лет
Сообщений: 1391
Спасибок: 39
Лайков: 64
не...слоган на постере офигенный - ничего хорошего на этом озере не случится - а то пля из названия не ясно :-D
Не в сети
Профиль  
 Добавлено: 2014-01-14 23:56 (спустя 20 минут)
Аватара пользователя
Стаж: 6 лет 9 месяцев
Возраст: 30
Сообщений: 90
Лайков: 6
Фильм редкостное дерьмо,сюжет отстой,девушки не красивые,актеры играют плохо,в фильме много ляпов и глупого сюжета (например приехали в лес и вернулись в город чтоб купить дров,или раз уж у них нельзя деревья рубить нахера тогда они взяли топор и мачете? или раз уж нельзя деревья рубить так как можно было забыть купить дрова если они ехали на ночь? 2) взрослые мужики и женщины а больше пол фильма все темы только бы как бы по трахаться.3 Сцены убийств глупые.не продуманные - например когда негру взади воткнули что то в спину когда он трахал бабу ,баба даже не закричала.Теперь сюжет - ну допустим толстого негра убили на озере и что? нафига он стал всех мочить то непонятно и что это ему дало или даст? такого дерьма я давно не смотрел .я зря потратил время.Фильм очень дешевый.К просмотру не советую.
Не в сети
Профиль  
 Добавлено: 2014-01-26 18:10 (спустя 11 дней)
Top-releaser
Аватара пользователя
Стаж: 7 лет 4 месяца
Возраст: 38
Сообщений: 5347
Спасибок: 10068
Лайков: 2936
Совершенно дурацкий фильм!
Не в сети
Профиль  
Начать новую темуОтветить на тему  [ Сообщений: 4 ] 
Вы не можете начинать темы
Вы не можете отвечать на сообщения
Вы не можете редактировать свои сообщения
Вы не можете удалять свои сообщения