Правила форума

  • В этом разделе создание новых тем Запрещено.
  • Для создания новых тем пользуйтесь Корневым разделом DVD и HD фильмы.
Начать новую темуОтветить на тему  [ 1 сообщение ] 
Торрент файл
Размер: 14.39 GB • Зарегистрирован: 4 года 4 месяца • Статус: Проверено
Скачан: 38 раз • Желающих скачать: 0 • Поблагодарили: 6 раз
 Раздают: 0  |  0 KB/s  ]   Качают: 0  |  0 KB/s  ] 
 Полного источника не было 3 года 2 месяца 
Сообщения
 Добавлено: 2012-07-26 08:18
Top-releaser
Аватара пользователя
Стаж: 7 лет 3 месяца
Возраст: 25
Сообщений: 1036
Спасибок: 2694
Лайков: 9
Черное золото
Black Gold



Изображение


Год выхода: 2011
Страна: Франция, Италия, Тунис, Катар

Жанр: драма
Продолжительность: 02:10:12
Перевод: Дублированное [лицензия] / Профессиональное (одноголосое) [Ю. Немахов]

Режиссер: Жан-Жак Анно
Сценарий: Менно Мейес, Жан-Жак Анно, Ален Годар
Продюсер: Тарак Бен Аммар, Naoufel Ben Youssef, Ксавьер Кастано
Оператор: Жан-Мари Дрёжу
Композитор: Джеймс Хорнер

В ролях: Тахар Рахим, Антонио Бандерас, Марк Стронг, Фрида Пинто, Риз Ахмед, Джамал Авар, Лотфи Дзири, Эрик Эбони, Акин Гази, Лия Кебеде, Кори Джонсон, Жан Уддин

Описание: События картины разворачиваются где-то на Аравийском полуострове в 30 годы, примерно в то время, когда там была обнаружена нефть. В сюжете переплелись борьба за власть, религия, нефтяная лихорадка и, конечно же, любовь.

Изображение

Изображение Изображение

Бюджет: €40 000 000
Cборы в России: $257 555

Качество BDRip 1080p R5
Формат: Mkv

Видео: MPEG4 Video (H264) 1920x820 23.98fps
Аудио 1: DTS 48000Hz 6ch 755 Kbps
Аудио 2: AC-3 48000Hz 6ch 640 Kbps
Аудио 3: DTS 48000Hz 6ch 1 510 Kbps
Subtitle: Pgs

Изображение

MediaInfo
General
Unique ID : 211651913586364667179511596912275441027 (0x9F3AAD024BC59B1C9F0D1B2FB2294583)
Complete name : I:\Download\Black.Gold.2011.BDRip.1080p.[uniongang.tv].mkv
Format : Matroska
Format version : Version 2
File size : 14.4 GiB
Duration : 2h 10mn
Overall bit rate : 15.8 Mbps
Movie name : [uniongang.tv]
Encoded date : UTC 2012-07-25 17:25:03
Writing application : mkvmerge v5.7.0 ('The Whirlwind') built on Jul 8 2012 20:08:51
Writing library : libebml v1.2.3 + libmatroska v1.3.0

Video
ID : 1
Format : AVC
Format/Info : Advanced Video Codec
Format profile : High@L4.1
Format settings, CABAC : Yes
Format settings, ReFrames : 5 frames
Codec ID : V_MPEG4/ISO/AVC
Duration : 2h 10mn
Bit rate : 12.9 Mbps
Width : 1 920 pixels
Height : 820 pixels
Display aspect ratio : 2.35:1
Frame rate : 23.976 fps
Color space : YUV
Chroma subsampling : 4:2:0
Bit depth : 8 bits
Scan type : Progressive
Bits/(Pixel*Frame) : 0.342
Stream size : 11.5 GiB (80%)
Title : [uniongang.tv]
Writing library : x264 core 120 r2164 da19765
Encoding settings : cabac=1 / ref=5 / deblock=1:-3:-3 / analyse=0x3:0x133 / me=umh / subme=10 / psy=1 / psy_rd=1.00:0.00 / mixed_ref=1 / me_range=48 / chroma_me=1 / trellis=2 / 8x8dct=1 / cqm=0 / deadzone=21,11 / fast_pskip=1 / chroma_qp_offset=-2 / threads=12 / sliced_threads=0 / nr=0 / decimate=0 / interlaced=0 / bluray_compat=0 / constrained_intra=0 / bframes=7 / b_pyramid=2 / b_adapt=2 / b_bias=0 / direct=3 / weightb=1 / open_gop=0 / weightp=2 / keyint=250 / keyint_min=23 / scenecut=40 / intra_refresh=0 / rc_lookahead=60 / rc=2pass / mbtree=0 / bitrate=12921 / ratetol=1.0 / qcomp=0.60 / qpmin=0 / qpmax=69 / qpstep=4 / cplxblur=20.0 / qblur=0.5 / vbv_maxrate=30000 / vbv_bufsize=30000 / nal_hrd=none / ip_ratio=1.50 / pb_ratio=1.30 / aq=1:1.00
Language : English
Default : Yes
Forced : Yes

Audio #1
ID : 2
Format : DTS
Format/Info : Digital Theater Systems
Codec ID : A_DTS
Duration : 2h 10mn
Bit rate mode : Constant
Bit rate : 755 Kbps
Channel(s) : 6 channels
Channel positions : Front: L C R, Side: L R, LFE
Sampling rate : 48.0 KHz
Bit depth : 24 bits
Compression mode : Lossy
Stream size : 703 MiB (5%)
Title : DUB [R5]
Language : Russian
Default : Yes
Forced : Yes

Audio #2
ID : 3
Format : AC-3
Format/Info : Audio Coding 3
Mode extension : CM (complete main)
Codec ID : A_AC3
Duration : 2h 10mn
Bit rate mode : Constant
Bit rate : 640 Kbps
Channel(s) : 6 channels
Channel positions : Front: L C R, Side: L R, LFE
Sampling rate : 48.0 KHz
Bit depth : 16 bits
Compression mode : Lossy
Stream size : 596 MiB (4%)
Title : NEMAHOV
Language : Russian
Default : No
Forced : No

Audio #3
ID : 4
Format : DTS
Format/Info : Digital Theater Systems
Codec ID : A_DTS
Duration : 2h 10mn
Bit rate mode : Constant
Bit rate : 1 510 Kbps
Channel(s) : 6 channels
Channel positions : Front: L C R, Side: L R, LFE
Sampling rate : 48.0 KHz
Bit depth : 16 bits
Compression mode : Lossy
Stream size : 1.37 GiB (10%)
Title : Original
Language : English
Default : No
Forced : No

Text #1
ID : 5
Format : PGS
Muxing mode : zlib
Codec ID : S_HDMV/PGS
Codec ID/Info : The same subtitle format used on BDs/HD-DVDs
Language : Russian
Default : No
Forced : No

Text #2
ID : 6
Format : PGS
Muxing mode : zlib
Codec ID : S_HDMV/PGS
Codec ID/Info : The same subtitle format used on BDs/HD-DVDs
Language : English
Default : No
Forced : No


Свернуть
Скриншоты
Изображение
Изображение
Изображение
Изображение
Изображение
Свернуть
Не в сети
Профиль  
Начать новую темуОтветить на тему  [ 1 сообщение ] 
Вы не можете начинать темы
Вы не можете отвечать на сообщения
Вы не можете редактировать свои сообщения
Вы не можете удалять свои сообщения