Правила форума

  • В этом разделе создание новых тем Запрещено.
  • Для создания новых тем пользуйтесь Корневым разделом DVD и HD фильмы.
Начать новую темуОтветить на тему  [ Сообщений: 2 ] 
Торрент файл
Размер: 9.52 GB • Зарегистрирован: 5 лет 6 месяцев • Статус: Проверено
Скачан: 84 раза • Желающих скачать: 0 • Поблагодарили: 24 раза
 Раздают: 0  |  0 KB/s  ]   Качают: 0  |  0 KB/s  ] 
 Полного источника не было 2 месяца 24 дня 
Сообщения
 Добавлено: 2011-06-03 19:01
Модератор релиз-группы
Аватара пользователя
Стаж: 9 лет 1 месяц
Возраст: 97
Сообщений: 11660
Спасибок: 6533
Лайков: 269
Четыре комнаты / Four Rooms

Изображение


Год выпуска: 1995
Страна: США
Жанр: комедия
Продолжительность: 01:37:48
Перевод: Авторский одноголосый (Ю. Живов) + Профессиональный (двухголосый закадровый) / R5 "Premier Digital" + Авторский одноголосый (В.Завгородний) + Авторский одноголосый (М.Иванов) + Оригинальная звуковая дорожка

Режиссёр: Эллисон Андерс, Александр Рокуэлл, Роберт Родригес, Квентин Тарантино
В ролях: Тим Рот, Мадонна, Валерия Голино, Антонио Бандерас, Сальма Хайек, Квентин Тарантино, Брюс Уиллис, Мариса Томей, Сэмми Дэвис, Аманда Де Кадене, Айони Скай, Лили Тейлор, Алисия Уитт, Дженнифер Билз, Дэвид Провэл, Лана МакКиссак, Патриция Вонне, Тэмлин Томита, Пол Кэлдерон, Лоуренс Бендер, Кэти Гриффин, Марк Лоуренс, Кимберли Блэр
Описание: Озорная комедия состоит из четырех новелл (каждый сделал по одной), связанных одним героем - коридорным Тедом, вышедшим на работу накануне Нового года.

Он попадает на шабаш ведьм, чуть не погибает от руки ревнивого мужа, еле уносит ноги от шаловливых детишек гангстера, принимает участие в странном пари эксцентричных господ.

Но, несмотря на все сомнительные приключения, коридорный сохраняет невозмутимость в любых, самых невероятных ситуациях.

Изображение

Качество: BDRip
Формат: MKV
Видео кодек: H.294(AVC)
Аудио кодек: AC3 (Dolby Digital)
Видео: AVC at 11,6 Мбит/сек 1920 x 1040 (1.846) at 23.976 fps
Аудио #1: AC-3 at 640 Кбит/сек 6 канала(ов), 48,0 КГц [Авторский одноголосый (Ю. Живов)]
Аудио #2: AC-3 at 448 Кбит/сек 6 канала(ов), 48,0 КГц [Профессиональный (двухголосый закадровый) / R5 "Premier Digital"]
Аудио #3: AC-3 at 192 Кбит/сек 2 канала(ов), 48,0 КГц [Авторский одноголосый (В.Завгородний)]
Аудио #4: AC-3 at 384 Кбит/сек 6 канала(ов), 48,0 КГц [Авторский одноголосый (М.Иванов)]
Аудио #5: AC-3 at 640 Кбит/сек 6 канала(ов), 48,0 КГц [Оригинальная звуковая дорожка]
Скриншоты
Изображение

Изображение

Изображение

Изображение

Изображение
Свернуть

Mi
Format : Matroska
File size : 9.52 GiB
Duration : 1h 37mn
Overall bit rate : 13.9 Mbps
Movie name : Four Rooms_Rip1080_HDReactor.org
Encoded date : UTC 2011-05-07 15:57:27
Writing application : mkvmerge v3.4.0 ('Rapunzel') сборка от May 15 2010 09:38:20
Writing library : libebml v0.8.0 + libmatroska v0.9.0

Video
ID : 1
Format : AVC
Format/Info : Advanced Video Codec
Format profile : High@L4.1
Format settings, CABAC : Yes
Format settings, ReFrames : 4 frames
Codec ID : V_MPEG4/ISO/AVC
Duration : 1h 37mn
Bit rate mode : Variable
Bit rate : 11.6 Mbps
Maximum bit rate : 40.0 Mbps
Width : 1 920 pixels
Height : 1 040 pixels
Display aspect ratio : 16:9
Frame rate : 23.976 fps
Color space : YUV
Chroma subsampling : 4:2:0
Bit depth : 8 bits
Scan type : Progressive
Bits/(Pixel*Frame) : 0.243
Stream size : 7.76 GiB (81%)
Writing library : x264 core 114 r1913 5fd3dce
Encoding settings : cabac=1 / ref=5 / deblock=1:-3:-3 / analyse=0x3:0x113 / me=umh / subme=10 / psy=1 / psy_rd=1.00:0.10 / mixed_ref=1 / me_range=32 / chroma_me=1 / trellis=2 / 8x8dct=1 / cqm=0 / deadzone=21,11 / fast_pskip=0 / chroma_qp_offset=-4 / threads=6 / sliced_threads=0 / slices=4 / nr=0 / decimate=0 / interlaced=0 / constrained_intra=0 / bframes=7 / b_pyramid=1 / b_adapt=2 / b_bias=0 / direct=1 / weightb=1 / open_gop=0 / weightp=2 / keyint=250 / keyint_min=23 / scenecut=40 / intra_refresh=0 / rc_lookahead=40 / rc=2pass / mbtree=0 / bitrate=11639 / ratetol=1.0 / qcomp=0.60 / qpmin=10 / qpmax=51 / qpstep=4 / cplxblur=20.0 / qblur=0.5 / vbv_maxrate=40000 / vbv_bufsize=30000 / nal_hrd=vbr / ip_ratio=1.40 / pb_ratio=1.30 / aq=1:0.80
Language : English

Audio #1
ID : 2
Format : AC-3
Format/Info : Audio Coding 3
Mode extension : CM (complete main)
Codec ID : A_AC3
Duration : 1h 37mn
Bit rate mode : Constant
Bit rate : 640 Kbps
Channel(s) : 6 channels
Channel positions : Front: L C R, Side: L R, LFE
Sampling rate : 48.0 KHz
Bit depth : 16 bits
Compression mode : Lossy
Stream size : 448 MiB (5%)
Title : Авторский (одноголосый закадровый, Ю. Живов)
Language : Russian

Audio #2
ID : 3
Format : AC-3
Format/Info : Audio Coding 3
Mode extension : CM (complete main)
Codec ID : A_AC3
Duration : 1h 37mn
Bit rate mode : Constant
Bit rate : 448 Kbps
Channel(s) : 6 channels
Channel positions : Front: L C R, Side: L R, LFE
Sampling rate : 48.0 KHz
Bit depth : 16 bits
Compression mode : Lossy
Stream size : 313 MiB (3%)
Title : Профессиональный (двухголосый закадровый, R5 Premier Digital)
Language : Russian

Audio #3
ID : 4
Format : AC-3
Format/Info : Audio Coding 3
Mode extension : CM (complete main)
Codec ID : A_AC3
Duration : 1h 37mn
Bit rate mode : Constant
Bit rate : 192 Kbps
Channel(s) : 2 channels
Channel positions : Front: L R
Sampling rate : 48.0 KHz
Bit depth : 16 bits
Compression mode : Lossy
Stream size : 134 MiB (1%)
Title : Авторский (одноголосый закадровый, В.Завгородний)
Language : Russian

Audio #4
ID : 5
Format : AC-3
Format/Info : Audio Coding 3
Mode extension : CM (complete main)
Codec ID : A_AC3
Duration : 1h 37mn
Bit rate mode : Constant
Bit rate : 384 Kbps
Channel(s) : 6 channels
Channel positions : Front: L C R, Side: L R, LFE
Sampling rate : 48.0 KHz
Bit depth : 16 bits
Compression mode : Lossy
Stream size : 269 MiB (3%)
Title : Авторский (одноголосый закадровый, М.Иванов)
Language : Russian

Audio #5
ID : 6
Format : AC-3
Format/Info : Audio Coding 3
Mode extension : CM (complete main)
Codec ID : A_AC3
Duration : 1h 37mn
Bit rate mode : Constant
Bit rate : 640 Kbps
Channel(s) : 6 channels
Channel positions : Front: L C R, Side: L R, LFE
Sampling rate : 48.0 KHz
Bit depth : 16 bits
Compression mode : Lossy
Stream size : 448 MiB (5%)
Language : English
Свернуть
Не в сети
Профиль  
 Добавлено: 2012-01-11 22:43 (спустя 7 месяцев)
Аватара пользователя
Стаж: 5 лет
Возраст: 24
Сообщений: 13
шикарный фильм) Спасибо!!! :ya_hoo_oo:
Не в сети
Профиль  
Начать новую темуОтветить на тему  [ Сообщений: 2 ] 
Вы не можете начинать темы
Вы не можете отвечать на сообщения
Вы не можете редактировать свои сообщения
Вы не можете удалять свои сообщения