Правила форума

  • В этом разделе создание новых тем Запрещено.
  • Для создания новых тем пользуйтесь Корневым разделом DVD и HD фильмы.
Начать новую темуОтветить на тему  [ 1 сообщение ] 
Торрент файл
Размер: 7.3 GB • Зарегистрирован: 5 лет 8 месяцев • Статус: Проверено
Скачан: 30 раз • Желающих скачать: 0 • Поблагодарили: 5 раз
 Раздают: 1  |  0 KB/s  ]   Качают: 0  |  0 KB/s  ] 
Сообщения
 Добавлено: 2012-02-02 17:39
Модератор релиз-группы
Аватара пользователя
Стаж: 7 лет 8 месяцев
Возраст: 29
Сообщений: 9789
Спасибок: 23733
Лайков: 103
Изображение

Четыре льва / Four Lions


Год выпуска: 2010
Страна: Великобритания Изображение
Жанр: драма, комедия
Продолжительность: 01:37:17
Перевод: Авторский (одноголосый), Профессиональный (многоголосый, закадровый)

Режиссер: Кристофер Моррис
Сценарий: Джесси Армстронг, Сэм Бэйн, Саймон Блэкуелл
Продюсер: Деррин Шлезингер, Марк Херберт, Энгус Эйнсли
Оператор: Лол Кроули
В ролях: Кайван Новак, Найджел Линдсэй, Риз Ахмед, Адиль Ахтар, Прия Калидас, Мохаммад Агиль, Крэйг Паркинсон, Карл Сет, Вильям Эль-Гарди, Александр Макквин
Описание: Кинолента «Четыре льва» повествует о четырех шахидах, проживающих на территории Великобритании. Каждый из них одержим мечтой стать знаменитым и отомстить за то, что другие не признают их интересы. Они готовы произвести любой теракт, только вот не знают, с чего начать. Умирать ведь не очень хочется.
Главные герои картины «Четыре льва» подумывают, а не взорвать ли им Интернет.

Изображение
MPAA: Изображение
Изображение
Мировая премьера: 23 января 2010
Релиз на DVD: 17 марта 2011, «Новый Диск»
Сборы в США: $304 616
Сборы в России: $47 774
Сборы в мире: $4 537 362
Релиз группы: Изображение
Раздача группы: Изображение

Качество: BDRip (1080p)
Формат: AVI
Видео: MPEG-4 AVC, 8144 Кбит/с, 1920x1040
Аудио: Русский (AC3, 6 ch, 640 Кбит/с) - Сербин, русский (AC3, 6 ch, 448 Кбит/с) - многоголосый, английский (DTS, 6 ch, 1510 Кбит/с)
Субтитры: Английские
Изображение

Info
General
Complete name : H:\4����\chetire.ljva.2010.x264.BDRip.(1080p).Pyha.mkv
Format : Matroska
File size : 7.30 GiB
Duration : 1h 37mn
Overall bit rate : 10.7 Mbps
Encoded date : UTC 2011-03-19 19:03:15
Writing application : mkvmerge v3.4.0 ('Rapunzel') ������ �� May 15 2010 09:38:20
Writing library : libebml v0.8.0 + libmatroska v0.9.0

Video
ID : 1
Format : AVC
Format/Info : Advanced Video Codec
Format profile : High@L4.1
Format settings, CABAC : Yes
Format settings, ReFrames : 4 frames
Muxing mode : Container profile=Unknown@4.1
Codec ID : V_MPEG4/ISO/AVC
Duration : 1h 37mn
Bit rate : 8 144 Kbps
Width : 1 920 pixels
Height : 1 040 pixels
Display aspect ratio : 16:9
Frame rate : 25.000 fps
Color space : YUV
Chroma subsampling : 4:2:0
Bit depth : 8 bits
Scan type : Progressive
Bits/(Pixel*Frame) : 0.163
Stream size : 5.39 GiB (74%)
Title : x264
Writing library : x264 core 104 r1703 cd21d05
Encoding settings : cabac=1 / ref=4 / deblock=1:0:0 / analyse=0x3:0x133 / me=umh / subme=7 / psy=1 / psy_rd=1.00:0.00 / mixed_ref=1 / me_range=16 / chroma_me=1 / trellis=1 / 8x8dct=1 / cqm=0 / deadzone=21,11 / fast_pskip=0 / chroma_qp_offset=-2 / threads=12 / sliced_threads=0 / nr=0 / decimate=1 / interlaced=0 / constrained_intra=0 / bframes=3 / b_pyramid=2 / b_adapt=1 / b_bias=0 / direct=3 / weightb=1 / open_gop=0 / weightp=2 / keyint=250 / keyint_min=25 / scenecut=40 / intra_refresh=0 / rc_lookahead=40 / rc=2pass / mbtree=1 / bitrate=8144 / ratetol=1.0 / qcomp=0.60 / qpmin=10 / qpmax=51 / qpstep=4 / cplxblur=20.0 / qblur=0.5 / ip_ratio=1.40 / aq=1:1.00
Language : English

Audio #1
ID : 2
Format : AC-3
Format/Info : Audio Coding 3
Mode extension : CM (complete main)
Codec ID : A_AC3
Duration : 1h 37mn
Bit rate mode : Constant
Bit rate : 640 Kbps
Channel(s) : 6 channels
Channel positions : Front: L C R, Side: L R, LFE
Sampling rate : 48.0 KHz
Bit depth : 16 bits
Stream size : 445 MiB (6%)
Title : Y. Serbin
Language : Russian

Audio #2
ID : 3
Format : DTS
Format/Info : Digital Theater Systems
Codec ID : A_DTS
Duration : 1h 37mn
Bit rate mode : Constant
Bit rate : 1 510 Kbps
Channel(s) : 6 channels
Channel positions : Front: L C R, Side: L R, LFE
Sampling rate : 48.0 KHz
Bit depth : 24 bits
Stream size : 1.03 GiB (14%)
Title : original
Language : English

Audio #3
ID : 5
Format : AC-3
Format/Info : Audio Coding 3
Mode extension : CM (complete main)
Codec ID : A_AC3
Duration : 1h 37mn
Bit rate mode : Constant
Bit rate : 448 Kbps
Channel(s) : 6 channels
Channel positions : Front: L C R, Side: L R, LFE
Sampling rate : 48.0 KHz
Bit depth : 16 bits
Stream size : 312 MiB (4%)
Title : �����.
Language : Russian

Text
ID : 4
Format : UTF-8
Codec ID : S_TEXT/UTF8
Codec ID/Info : UTF-8 Plain Text
Title : Subtitles
Language : English

Menu
00:00:00.000 : en:00:00:00.000
00:09:27.360 : en:00:09:27.360
00:18:47.120 : en:00:18:47.120
00:29:53.720 : en:00:29:53.720
00:39:02.720 : en:00:39:02.720
00:45:39.200 : en:00:45:39.200
00:55:08.600 : en:00:55:08.600
01:02:49.800 : en:01:02:49.800
01:11:16.240 : en:01:11:16.240
01:19:09.320 : en:01:19:09.320
01:27:49.920 : en:01:27:49.920
01:33:09.920 : en:01:33:09.920
Свернуть
Скриншоты

Изображение
Изображение
Изображение
Изображение
Свернуть


Тема поднималась пользователем volkov2009 2012-02-02 17:39.
Не в сети
Профиль  
Начать новую темуОтветить на тему  [ 1 сообщение ] 
Вы не можете начинать темы
Вы не можете отвечать на сообщения
Вы не можете редактировать свои сообщения
Вы не можете удалять свои сообщения