Правила форума

  • В этом разделе создание новых тем Запрещено.
  • Для создания новых тем пользуйтесь Корневым разделом DVD и HD фильмы.
Начать новую темуОтветить на тему  [ Сообщений: 4 ] 
Торрент файл
Размер: 5.7 GB • Зарегистрирован: 1 год 10 месяцев • Статус: Проверено
Скачан: 9 раз • Желающих скачать: 0 • Поблагодарили: 2 раза
 Раздают: 0  |  0 KB/s  ]   Качают: 0  |  0 KB/s  ] 
 Полного источника не было 1 год 7 месяцев 
Сообщения
 Добавлено: 2015-02-09 11:00
RG-ELEKTRO
Аватара пользователя
Стаж: 2 года 3 месяца
Сообщений: 7928
Спасибок: 53805
Лайков: 3304
Чико / Chiko



Изображение

Год выпуска: 2008
Страна: Германия, Италия
Жанр: драма, криминал
Продолжительность: 01:32:17
Перевод: профессиональный двухголосый, одноголосый закадровый
Субтитры: русские, английские

Режиссёр: Озгюр Йилдирим

В ролях: Денис Москитто, Мориц Бляйбтрой, Волькан Озджан, Фахри Огюн Ярдим, Хузер, Филипп Балтус, Хенни Ринтс, Ганс Лоу, Симон Гёрц, Мурат Караман, Энвер Акин, Лукас Грегорович, Питер Джордан

Описание: Чико очень хочет пробиться на верх. И это получается, благодаря бигбоссу Броуни. Со своим лучшим другом Тибетом он удостаивается внимания Броуни. Он поражён мужеством и находчивостью Чико и даёт ему шанс. Однако, когда Тибет обманывает Броуни, приходит время испытания нервов. Бройни больше не хочет иметь ничего общего с Тибетом. Теперь речь идет о лояльности обоих друзей и воли Чико работать на верху, нужда в признании, уважении и власти на другой стороне. но вскоре Чико замечает, что петля совсем близко и к его шее...

Изображение

Качество: BDRip 720p
Формат: MKV
Видео кодек: H.264
Видео: 7833 Kбит/с, 1280x690, 23.976 кадра/с, 0.370 bpp
Аудио 1: русский, AC3, 192 kbps, 2 ch, 48 kHz [профессиональный двухголосый, R5]
Аудио 2: русский, AC3, 192 kbps, 2 ch, 48 kHz [закадровый одноголосый]
Аудио 3: немецкий, AC3, 448 kbps, 6 ch, 48 kHz [оригинал]

Имеются неименованные главы/чаптеры.

"MediaInfo"
Общее
Уникальный идентификатор : 192194459816829936898552129146253110761 (0x90974E78CB07A67CA379086A43566DE9)
Полное имя : D:VideoChiko.2008.BDRip.720p.mkv
Формат : Matroska
Версия формата : Version 4 / Version 2
Размер файла : 5,70 Гбайт
Продолжительность : 1 ч. 32 м.
Общий поток : 8841 Кбит/сек
Дата кодирования : UTC 2015-02-09 03:49:11
Программа кодирования : mkvmerge v7.5.0 ('Glass Culture') 64bit built on Jan 4 2015 16:48:44
Библиотека кодирования : libebml v1.3.1 + libmatroska v1.4.2
DURATION : 01:25:44.769000000
NUMBER_OF_FRAMES : 633
NUMBER_OF_BYTES : 27220
_STATISTICS_WRITING_APP : mkvmerge v7.5.0 ('Glass Culture') 64bit built on Jan 4 2015 16:48:44
_STATISTICS_WRITING_DATE_UTC : 2015-02-09 03:49:11
_STATISTICS_TAGS : BPS DURATION NUMBER_OF_FRAMES NUMBER_OF_BYTES

Видео
Идентификатор : 1
Формат : AVC
Формат/Информация : Advanced Video Codec
Профиль формата : High@L4.1
Параметр CABAC формата : Да
Параметр ReFrames формата : 9 кадров
Идентификатор кодека : V_MPEG4/ISO/AVC
Продолжительность : 1 ч. 32 м.
Битрейт : 7833 Кбит/сек
Ширина : 1280 пикселей
Высота : 690 пикселей
Соотношение сторон : 1,85:1
Режим частоты кадров : Постоянный
Частота кадров : 23,976 кадра/сек
Цветовое пространство : YUV
Субдискретизация насыщенности : 4:2:0
Битовая глубина : 8 бит
Тип развёртки : Прогрессивная
Бит/(Пиксели*Кадры) : 0.370
Размер потока : 5,05 Гбайт (89%)
Заголовок : BDRip -- STarankov
Библиотека кодирования : x264 core 142 r2431 ac76440
Настройки программы : cabac=1 / ref=9 / deblock=1:-1:-1 / analyse=0x3:0x113 / me=umh / subme=10 / psy=1 / psy_rd=1.00:0.15 / mixed_ref=1 / me_range=32 / chroma_me=1 / trellis=2 / 8x8dct=1 / cqm=0 / deadzone=21,11 / fast_pskip=1 / chroma_qp_offset=-3 / threads=6 / lookahead_threads=1 / sliced_threads=0 / nr=0 / decimate=1 / interlaced=0 / bluray_compat=0 / constrained_intra=0 / bframes=8 / b_pyramid=2 / b_adapt=2 / b_bias=0 / direct=3 / weightb=1 / open_gop=0 / weightp=2 / keyint=230 / keyint_min=23 / scenecut=40 / intra_refresh=0 / rc_lookahead=40 / rc=crf / mbtree=0 / crf=19.5 / qcomp=0.60 / qpmin=0 / qpmax=69 / qpstep=4 / vbv_maxrate=40000 / vbv_bufsize=50000 / crf_max=0.0 / nal_hrd=none / filler=0 / ip_ratio=1.40 / pb_ratio=1.30 / aq=1:1.00
Язык : German
Default : Да
Forced : Нет
DURATION : 01:32:17.491000000
NUMBER_OF_FRAMES : 132767
NUMBER_OF_BYTES : 5542037981
_STATISTICS_WRITING_APP : mkvmerge v7.5.0 ('Glass Culture') 64bit built on Jan 4 2015 16:48:44
_STATISTICS_WRITING_DATE_UTC : 2015-02-09 03:49:11
_STATISTICS_TAGS : BPS DURATION NUMBER_OF_FRAMES NUMBER_OF_BYTES

Аудио #1
Идентификатор : 2
Формат : AC-3
Формат/Информация : Audio Coding 3
Расширение режима : CM (complete main)
Параметр Endianness формата : Big
Идентификатор кодека : A_AC3
Продолжительность : 1 ч. 32 м.
Вид битрейта : Постоянный
Битрейт : 192 Кбит/сек
Каналы : 2 канала
Расположение каналов : Front: L R
Частота : 48,0 КГц
Битовая глубина : 16 бит
Метод сжатия : С потерями
Размер потока : 127 Мбайт (2%)
Заголовок : DVO (R5)
Язык : Russian
Default : Да
Forced : Нет

Аудио #2
Идентификатор : 3
Формат : AC-3
Формат/Информация : Audio Coding 3
Расширение режима : CM (complete main)
Параметр Endianness формата : Big
Идентификатор кодека : A_AC3
Продолжительность : 1 ч. 32 м.
Вид битрейта : Постоянный
Битрейт : 192 Кбит/сек
Каналы : 2 канала
Расположение каналов : Front: L R
Частота : 48,0 КГц
Битовая глубина : 16 бит
Метод сжатия : С потерями
Размер потока : 127 Мбайт (2%)
Заголовок : VO (одноголосый закадровый)
Язык : Russian
Default : Нет
Forced : Нет

Аудио #3
Идентификатор : 4
Формат : AC-3
Формат/Информация : Audio Coding 3
Расширение режима : CM (complete main)
Параметр Endianness формата : Big
Идентификатор кодека : A_AC3
Продолжительность : 1 ч. 32 м.
Вид битрейта : Постоянный
Битрейт : 448 Кбит/сек
Каналы : 6 каналов
Расположение каналов : Front: L C R, Side: L R, LFE
Частота : 48,0 КГц
Битовая глубина : 16 бит
Метод сжатия : С потерями
Размер потока : 296 Мбайт (5%)
Заголовок : Original
Язык : German
Default : Нет
Forced : Нет

Текст #1
Идентификатор : 5
Формат : UTF-8
Идентификатор кодека : S_TEXT/UTF8
Идентификатор кодека/Информация : UTF-8 Plain Text
Заголовок : русский
Язык : Russian
Default : Нет
Forced : Нет

Текст #2
Идентификатор : 6
Формат : UTF-8
Идентификатор кодека : S_TEXT/UTF8
Идентификатор кодека/Информация : UTF-8 Plain Text
Заголовок : английский
Default : Нет
Forced : Нет

Меню
00:00:00.000 : en:00:00:00.000
00:02:20.015 : en:00:02:20.015
00:08:57.537 : en:00:08:57.537
00:17:40.434 : en:00:17:40.434
00:23:04.675 : en:00:23:04.675
00:29:48.954 : en:00:29:48.954
00:38:57.544 : en:00:38:57.544
00:51:22.037 : en:00:51:22.037
01:00:51.690 : en:01:00:51.690
01:08:05.540 : en:01:08:05.540
01:16:44.767 : en:01:16:44.767
01:20:46.550 : en:01:20:46.550
01:28:39.731 : en:01:28:39.731
Свернуть

"Скриншоты"
Изображение
Изображение
Изображение
Изображение


Свернуть
_________________
Не ищите меня в "ВКонтакте", в "Одноклассниках" меня нет - я на трекерах сижу!
Не в сети
Профиль  
 Добавлено: 2015-02-10 12:31 (спустя 1 день 1 час)
Аватара пользователя
Стаж: 7 лет 4 месяца
Сообщений: 16
"И это получается, благодаря бигбоссу Броуни" Весь этот фильм - это отсылка к Metal Gear? :-D
Не в сети
Профиль  
 Добавлено: 2015-02-11 17:49 (спустя 1 день 5 часов)
Стаж: 8 лет 1 месяц
Сообщений: 216
Лайков: 24
Мориц Бляйбтрой...хм, опасно скачивать.
Не в сети
Профиль  
 Добавлено: 2015-02-11 20:30 (спустя 2 часа 40 минут)
Стаж: 4 года 11 месяцев
Сообщений: 15
На разок ништяк филмец
Не в сети
Профиль  
Начать новую темуОтветить на тему  [ Сообщений: 4 ] 
Вы не можете начинать темы
Вы не можете отвечать на сообщения
Вы не можете редактировать свои сообщения
Вы не можете удалять свои сообщения