Правила форума

  • В этом разделе создание новых тем Запрещено.
  • Для создания новых тем пользуйтесь Корневым разделом DVD и HD фильмы.
Начать новую темуОтветить на тему  [ Сообщений: 4 ] 
Торрент файл
Размер: 8.9 GB • Зарегистрирован: 1 год 4 месяца • Статус: T Временный релиз
Скачан: 26 раз • Желающих скачать: 0 • Поблагодарили: 7 раз
 Раздают: 1  |  0 KB/s  ]   Качают: 0  |  0 KB/s  ] 
Сообщения
 Добавлено: 2015-07-30 20:37
Аватара пользователя
Стаж: 8 лет 11 месяцев
Сообщений: 19
Спасибок: 557
Чжун Куй: Снежная дева и тёмный кристалл / Zhong Kui Snow Girl and the Dark Crystal

Изображение


Год выпуска: 2015
Страна: Китай, Гонконг, США (Desen International Media, Enlight Pictures, Warner Bros. (F.E.))
Жанр: фэнтези, приключения
Продолжительность: 01:57:42
Перевод: Любительский (двухголосый закадровый) + Оригинальная звуковая дорожка
Субтитры: Английские

Режиссёр: Питер Пау, Чжао Тайню
В ролях: Чэнь Кунь,Ли Бинбин, Уинстон Чао, Бэйэр Бао, Саммер Джайк, Цзышань Ян
Описание: Молодой человек Чжун Куй — в поздней китайской мифологии повелитель демонов, а к началу эпохи Тан Чжун Куй превратился из божества, оберегающего от злых сил, в божество, усмиряющее и истребляющее демонов — наделённый таинственными силами вынужден сражаться с духами Неба, Земли и Ада ради спасения своих соотечественников и любимой женщины…
Изображение 5.706 (107)
Изображение 4.90 (217)

Качество: BDRip
Формат: MKV
Видео кодек: x264
Аудио кодек: AC3 (Dolby Digital)
Видео: 9108 kb/s, 1920x800
Аудио #1: AC3, 192 kb/s (2 ch)
Аудио #2: DTS, 1510 kb/s (6 ch)
Субтитры: Английские
Скриншоты
Изображение
Изображение
Изображение
Изображение
Свернуть

MediaInfo
General
Unique ID : 250724808451720529140812245779003647334 (0xBC9FD775B496B7B48599AE3FA322A566)
Complete name : F:\Zhong_Kui_Snow_Girl_and_the_Dark_Сrystal.2015.P.BDRip.1080p.mkv
Format : Matroska
Format version : Version 4 / Version 2
File size : 8.90 GiB
Duration : 1h 57mn
Overall bit rate : 10.8 Mbps
Encoded date : UTC 2015-07-30 17:18:43
Writing application : mkvmerge v7.5.0 ('Glass Culture') 64bit built on Jan 4 2015 16:48:44
Writing library : libebml v1.3.1 + libmatroska v1.4.2
_STATISTICS_WRITING_APP : mkvmerge v7.5.0 ('Glass Culture') 64bit built on Jan 4 2015 16:48:44
_STATISTICS_WRITING_DATE_UT : 2015-07-30 17:18:43
_STATISTICS_TAGS : BPS DURATION NUMBER_OF_FRAMES NUMBER_OF_BYTES
DURATION : 01:47:56.167000000
NUMBER_OF_FRAMES : 699
NUMBER_OF_BYTES : 24134

Video
ID : 1
Format : AVC
Format/Info : Advanced Video Codec
Format profile : High@L4.1
Format settings, CABAC : Yes
Format settings, ReFrames : 5 frames
Codec ID : V_MPEG4/ISO/AVC
Duration : 1h 57mn
Bit rate : 9 108 Kbps
Width : 1 920 pixels
Height : 800 pixels
Display aspect ratio : 2.40:1
Frame rate mode : Constant
Frame rate : 24.000 fps
Color space : YUV
Chroma subsampling : 4:2:0
Bit depth : 8 bits
Scan type : Progressive
Bits/(Pixel*Frame) : 0.247
Stream size : 7.32 GiB (82%)
Writing library : x264 core 146 r2538 121396c
Encoding settings : cabac=1 / ref=5 / deblock=1:0:0 / analyse=0x3:0x133 / me=umh / subme=7 / psy=1 / psy_rd=1.00:0.00 / mixed_ref=1 / me_range=16 / chroma_me=1 / trellis=1 / 8x8dct=1 / cqm=0 / deadzone=21,11 / fast_pskip=0 / chroma_qp_offset=-2 / threads=18 / lookahead_threads=3 / sliced_threads=0 / nr=0 / decimate=1 / interlaced=0 / bluray_compat=0 / constrained_intra=0 / bframes=3 / b_pyramid=2 / b_adapt=1 / b_bias=0 / direct=1 / weightb=1 / open_gop=0 / weightp=2 / keyint=250 / keyint_min=23 / scenecut=40 / intra_refresh=0 / rc_lookahead=40 / rc=2pass / mbtree=1 / bitrate=9108 / ratetol=1.0 / qcomp=0.60 / qpmin=0 / qpmax=69 / qpstep=4 / cplxblur=20.0 / qblur=0.5 / ip_ratio=1.40 / aq=1:1.00
Language : Chinese
Default : Yes
Forced : No
_STATISTICS_WRITING_APP : mkvmerge v7.5.0 ('Glass Culture') 64bit built on Jan 4 2015 16:48:44
_STATISTICS_WRITING_DATE_UT : 2015-07-30 17:18:43
_STATISTICS_TAGS : BPS DURATION NUMBER_OF_FRAMES NUMBER_OF_BYTES
DURATION : 01:57:52.423000000
NUMBER_OF_FRAMES : 169738
NUMBER_OF_BYTES : 8050434400

Audio #1
ID : 2
Format : AC-3
Format/Info : Audio Coding 3
Mode extension : CM (complete main)
Format settings, Endianness : Big
Codec ID : A_AC3
Duration : 1h 57mn
Bit rate mode : Constant
Bit rate : 192 Kbps
Channel(s) : 2 channels
Channel positions : Front: L R
Sampling rate : 48.0 KHz
Compression mode : Lossy
Stream size : 162 MiB (2%)
Language : Russian
Default : Yes
Forced : Yes

Audio #2
ID : 3
Format : DTS
Format/Info : Digital Theater Systems
Mode : 16
Format settings, Endianness : Big
Codec ID : A_DTS
Duration : 1h 57mn
Bit rate mode : Constant
Bit rate : 1 509 Kbps
Channel(s) : 6 channels
Channel positions : Front: L C R, Side: L R, LFE
Sampling rate : 48.0 KHz
Bit depth : 24 bits
Compression mode : Lossy
Stream size : 1.24 GiB (14%)
Language : Chinese
Default : No
Forced : No

Text
ID : 4
Format : UTF-8
Codec ID : S_TEXT/UTF8
Codec ID/Info : UTF-8 Plain Text
Title : English-Forced
Language : English
Default : No
Forced : No

Menu
00:00:00.000 : en:00:00:00.000
00:07:21.750 : en:00:07:21.750
00:14:47.583 : en:00:14:47.583
00:24:51.333 : en:00:24:51.333
00:33:01.542 : en:00:33:01.542
00:41:41.458 : en:00:41:41.458
00:47:44.625 : en:00:47:44.625
00:55:15.833 : en:00:55:15.833
01:03:58.500 : en:01:03:58.500
01:15:14.542 : en:01:15:14.542
01:27:45.042 : en:01:27:45.042
01:36:38.792 : en:01:36:38.792
01:50:16.083 : en:01:50:16.083
Свернуть
Не в сети
Профиль  
 Добавлено: 2015-08-04 20:43 (спустя 5 дней)
Аватара пользователя
Стаж: 7 лет 10 месяцев
Возраст: 31
Сообщений: 164
Лайков: 16
Не сразу понял, прочитав "снежная дева и стремный кристалл"...
Не в сети
Профиль  
 Добавлено: 2015-08-08 20:05 (спустя 3 дня)
Стаж: 9 лет
Сообщений: 312
Спасибок: 347
Лайков: 9
Куй ?
Не в сети
Профиль  
 Добавлено: 2015-08-08 21:57 (спустя 1 час 52 минуты)
Аватара пользователя
Стаж: 8 лет 10 месяцев
Возраст: 24
Сообщений: 121
Спасибок: 376
Лайков: 4
[spoiler][/spoiler]
_________________
ИзображениеИзображение
Не в сети
Профиль  
Начать новую темуОтветить на тему  [ Сообщений: 4 ] 
Вы не можете начинать темы
Вы не можете отвечать на сообщения
Вы не можете редактировать свои сообщения
Вы не можете удалять свои сообщения