Правила форума

  • В этом разделе создание новых тем Запрещено.
  • Для создания новых тем пользуйтесь Корневым разделом DVD и HD фильмы.
Начать новую темуОтветить на тему  [ Сообщений: 2 ] 
Торрент файл
Размер: 4.66 GB • Зарегистрирован: 4 года 6 месяцев • Статус: Проверено
Скачан: 29 раз • Желающих скачать: 0 • Поблагодарили: 5 раз
 Раздают: 0  |  0 KB/s  ]   Качают: 0  |  0 KB/s  ] 
 Полного источника не было 1 месяц 23 дня 
Сообщения
 Добавлено: 2012-05-13 10:16
Инквизитор
Аватара пользователя
Стаж: 8 лет 8 месяцев
Сообщений: 3753
Спасибок: 28360
Лайков: 9
Изображение

Чрево


Год выпуска: 2010
Страна: Германия, Франция, Венгрия
Слоган: «What are the consequences of giving birth to your dead boyfriend?»
Жанр: фантастика, драма, мелодрама
Продолжительность: 01:51:53
Перевод: Оригинальный, Профессиональный (многоголосый, закадровый)
Режиссер: Бенедек Флигауф
Сценарий: Бенедек Флигауф
Продюсер: Роман Пол, Герхард Мейхнер, Андраш Мухи
Оператор: Питер Сатмари
Композитор: Макс Рихтер
В ролях: Ева Грин, Мэтт Смит, Лесли Мэнвиль, Питер Уайт, Иштван Ленарт, Наталья Тена, Аманда Лоуренс и др.
Бюджет: €3 100 000
Описание: Недалекое будущее. Семилетние Ребекка и Томас живут в небольшом прибрежном городке и дружат с самого детства. После окончания школы семнадцатилетняя Ребекка возвращается в родной городок и у нее завязывается бурный роман с подросшим Томасом.
Спустя несколько месяцев Томас погибает в нелепой автокатастрофе. Отчаявшаяся Ребекка не находит себе места до тех пор, пока ей не приходит в голову безумная идея. В недалеком будущем вполне обыденным явлением стало клонирование людей, пусть общество и не до конца принимает это научное изобретение. Ребекка решает дать новую жизнь своему потерянному возлюбленному.
В доме на берегу моря повзрослевшая Ребекка растит обаятельного сына Томаса, который уверен, что его отец погиб в автокатастрофе. Ребекка никогда не говорит вслух о клонировании. Пока не появляется кое-кто из прошлой жизни и тайное не становится явным.

Изображение
Мировая премьера: 15 июля 2010
Релиз на DVD: 30 марта 2011, «Кармен Видео»
Раздача группы: Изображение
Качество: BDRip, 720p
Формат: Matroska
Видео: AVC; 1280x544 (2.35:1); 3951 Kbps; 24 fps; 0,236 bit/pixel
Аудио №1: Russian; AC3; 384 Kbps; CBR; 6 ch
Аудио №2: English; DTS; 1509 Kbps; CBR; 6 ch; 24 bit

Субтитры №1: Ukrainian
Субтитры №2: English

"Знаете ли Вы, что..."
  • Компьютерная игра, в которую несколько раз на протяжении всего фильма играл Томми, называется «Line Rider».
Свернуть
M.I.
Общее
Уникальный идентификатор                 : 182677848186969865524897507034608630264 (0x896E794AF41EBABB848E81B16192F9F8)
Полное имя                               : E:\Фильмы\Womb.2010.720p.BluRay.Rus.Eng.HDCLUB.mkv
Формат                                   : Matroska
Версия формата                           : Version 2
Размер файла                             : 4,66 Гбайт
Продолжительность                        : 1 ч. 51 м.
Общий поток                              : 5964 Кбит/сек
Название фильма                          : Womb (2010) - Release for HDCLUB
Дата кодирования                         : UTC 2012-05-11 08:25:33
Программа кодирования                    : mkvmerge v3.2.0 ('Beginnings') built on Feb 12 2010 16:46:17
Библиотека кодирования                   : libebml v0.7.9 + libmatroska v0.8.1

Видео
Идентификатор                            : 1
Формат                                   : AVC
Формат/Информация                        : Advanced Video Codec
Профиль формата                          : High@L4.1
Параметр CABAC формата                   : Да
Параметр ReFrames формата                : 5 кадров
Идентификатор кодека                     : V_MPEG4/ISO/AVC
Продолжительность                        : 1 ч. 51 м.
Битрейт                                  : 4073 Кбит/сек
Ширина                                   : 1280 пикселей
Высота                                   : 544 пикселя
Соотношение сторон                       : 2,35:1
Частота кадров                           : 24,000 кадра/сек
Цветовое пространство                    : YUV
Субдискретизация насыщенности            : 4:2:0
Битовая глубина                          : 8 бит
Тип развёртки                            : Прогрессивная
Бит/(Пиксели*Кадры)                      : 0.244
Размер потока                            : 3,09 Гбайт (66%)
Заголовок                                : Womb (2010) - Release for HDCLUB
Библиотека кодирования                   : x264 core 124 r2197 69a0443
Настройки программы                      : cabac=1 / ref=5 / deblock=1:0:0 / analyse=0x3:0x133 / me=umh / subme=7 / psy=1 / psy_rd=1.00:0.00 / mixed_ref=1 / me_range=16 / chroma_me=1 / trellis=1 / 8x8dct=1 / cqm=0 / deadzone=21,11 / fast_pskip=0 / chroma_qp_offset=-2 / threads=12 / sliced_threads=0 / nr=0 / decimate=1 / interlaced=0 / bluray_compat=0 / constrained_intra=0 / bframes=3 / b_pyramid=2 / b_adapt=2 / b_bias=0 / direct=3 / weightb=1 / open_gop=0 / weightp=2 / keyint=250 / keyint_min=24 / scenecut=40 / intra_refresh=0 / rc_lookahead=50 / rc=2pass / mbtree=1 / bitrate=4073 / ratetol=1.0 / qcomp=0.60 / qpmin=0 / qpmax=69 / qpstep=4 / cplxblur=20.0 / qblur=0.5 / ip_ratio=1.40 / aq=1:1.00
Язык                                     : English
Default                                  : Нет
Forced                                   : Нет

Аудио #1
Идентификатор                            : 2
Формат                                   : AC-3
Формат/Информация                        : Audio Coding 3
Расширение режима                        : CM (complete main)
Идентификатор кодека                     : A_AC3
Продолжительность                        : 1 ч. 51 м.
Вид битрейта                             : Постоянный
Битрейт                                  : 384 Кбит/сек
Каналы                                   : 6 каналов
Расположение каналов                     : Front: L C R, Side: L R, LFE
Частота                                  : 48,0 КГц
Битовая глубина                          : 16 бит
Метод сжатия                             : С потерями
Размер потока                            : 307 Мбайт (6%)
Заголовок                                : AC3 5.1 @ 384 kbps - Многоголосый закадровый
Язык                                     : Russian
Default                                  : Да
Forced                                   : Нет

Аудио #2
Идентификатор                            : 3
Формат                                   : DTS
Формат/Информация                        : Digital Theater Systems
Идентификатор кодека                     : A_DTS
Продолжительность                        : 1 ч. 51 м.
Вид битрейта                             : Постоянный
Битрейт                                  : 1510 Кбит/сек
Каналы                                   : 6 каналов
Расположение каналов                     : Front: L C R, Side: L R, LFE
Частота                                  : 48,0 КГц
Битовая глубина                          : 24 бит
Метод сжатия                             : С потерями
Задержка видео                           : 11 мс.
Размер потока                            : 1,18 Гбайт (25%)
Заголовок                                : DTS 5.1 @ 1510 kbps
Язык                                     : English
Default                                  : Нет
Forced                                   : Нет

Текст #1
Идентификатор                            : 4
Формат                                   : UTF-8
Идентификатор кодека                     : S_TEXT/UTF8
Идентификатор кодека/Информация          : UTF-8 Plain Text
Язык                                     : Ukrainian
Default                                  : Нет
Forced                                   : Нет

Текст #2
Идентификатор                            : 5
Формат                                   : UTF-8
Идентификатор кодека                     : S_TEXT/UTF8
Идентификатор кодека/Информация          : UTF-8 Plain Text
Язык                                     : English
Default                                  : Нет
Forced                                   : Нет
Свернуть
Скриншоты

Изображение
Изображение
Изображение
Изображение
Изображение
Изображение
Свернуть

Изображение
Не в сети
Профиль  
 Добавлено: 2012-05-15 20:53 (спустя 2 дня 10 часов)
Аватара пользователя
Стаж: 8 лет 1 месяц
Сообщений: 33
Ооооо... Эта актриса снималась в фильме "Последняя любовь на земле",очень неплохой фильм! Качаю! Автору респект!!!
Не в сети
Профиль  
Начать новую темуОтветить на тему  [ Сообщений: 2 ] 
Вы не можете начинать темы
Вы не можете отвечать на сообщения
Вы не можете редактировать свои сообщения
Вы не можете удалять свои сообщения