Правила форума

  • В этом разделе создание новых тем Запрещено.
  • Для создания новых тем пользуйтесь Корневым разделом DVD и HD фильмы.
Начать новую темуОтветить на тему  [ 1 сообщение ] 
Торрент файл
Размер: 4.69 GB • Зарегистрирован: 5 лет 9 месяцев • Статус: Проверено
Скачан: 52 раза • Желающих скачать: 0 • Поблагодарили: 9 раз
 Раздают: 0  |  0 KB/s  ]   Качают: 0  |  0 KB/s  ] 
 Полного источника не было 5 часов 
Сообщения
 Добавлено: 2011-03-08 10:02
Инквизитор
Аватара пользователя
Стаж: 8 лет 9 месяцев
Сообщений: 3753
Спасибок: 28360
Лайков: 9
Изображение

Что гложет Гилберта Грейпа? / What's Eating Gilbert Grape


Год выпуска: 1993
Страна: США
Слоган: «Living in Endora is like dancing to no music.»
Жанр: драма, мелодрама
Продолжительность: 01:57:28
Перевод: Профессиональный (многоголосый, закадровый), (Двухголосый закадровый)
Режиссер: Лассе Халльстрём
Сценарий: Питер Хеджес
Продюсер: Алан С. Бломквист, Лассе Халльстрём, Дэвид Маталон, Бертил Олссон, Мейр Тепер
Оператор: Свен Нюквист
Композитор: Бьёрн Исфельт, Алан Паркер, Алессандро Чиконини, Артур Кэй, Док Помус
В ролях: Джонни Депп (Gilbert Grape), Леонардо ДиКаприо (Arnie Grape), Джульетт Льюис (Becky), Мэри Стинберген (Betty Carver), Дарлен Кэйтс (Bonnie Grape), Лора Хэррингтон (Amy Grape), Мэри Кейт Шеллхардт (Ellen Grape), Кевин Тай (Ken Carver), Джон Си Райли (Tucker Van Dyke), Криспин Гловер (Bobby McBurney), Penelope Branning (Becky's Grandma), Тим Грин (Mr. Lamson)
Описание: Гилберт Грейп живет в штате Айова, в крошечном городке с населением в тысячу жителей. У него две сестры, слабоумный брат и толстуха-мать. Гилберт тянет лямку в магазине и крутит роман с замужней дамой. Но все меняется, когда в городок приезжает красивая молодая женщина по имени Беки.
Изображение
Бюджет: $11 000 000
Сборы в США: $10 032 765
Мировая премьера: 17 декабря 1993
Изображение
MPAA:
Раздача группы: Изображение
Качество: HDTVRip 720p
Формат: Matroska
Видео: 1280x706 at 23.976 fps, x264, ~4690 kbps
Аудио:
  • Russian: 48 kHz, AC3, 2 (L,R), ~192.00 kbps (многоголосый, закадровый)
  • Russian: 48 kHz, AC3, 2 (L,R), ~192.00 kbps (Двухголосый закадровый)
  • English: 48 kHz, AC3, 3/2 (L,C,R,l,r) + LFE ch, ~384.00 kbps

MI
General
Complete name : E:\Мои видеозаписи\torrents\Chto.glozhet.Gilberta.Greypa.1993.x264.HDTVRip.720p.mkv
Format : Matroska
File size : 4.69 GiB
Duration : 1h 57mn
Overall bit rate : 5 700 Kbps
Movie name : What's Eating Gilbert Grape (1993) - Release for HDCLUB
Encoded date : UTC 2009-07-13 20:38:21
Writing application : mkvmerge v2.1.0 ('Another Place To Fall') built on Aug 19 2007 13:40:07
Writing library : libebml v0.7.7 + libmatroska v0.8.1

Video
ID : 1
Format : AVC
Format/Info : Advanced Video Codec
Format profile : High@L4.1
Format settings, CABAC : Yes
Format settings, ReFrames : 9 frames
Muxing mode : Container profile=Unknown@4.1
Codec ID : V_MPEG4/ISO/AVC
Duration : 1h 57mn
Bit rate : 4 930 Kbps
Width : 1 280 pixels
Height : 706 pixels
Display aspect ratio : 16:9
Frame rate : 23.976 fps
Color space : YUV
Chroma subsampling : 4:2:0
Bit depth : 8 bits
Scan type : Progressive
Bits/(Pixel*Frame) : 0.228
Stream size : 3.97 GiB (85%)
Title : Release for HDCLUB
Writing library : x264 core 68 r1179M 96e2229
Encoding settings : cabac=1 / ref=9 / deblock=1:-3:-3 / analyse=0x3:0x113 / me=umh / subme=9 / psy_rd=0.8:0.6 / mixed_ref=1 / me_range=32 / chroma_me=1 / trellis=2 / 8x8dct=1 / cqm=0 / deadzone=21,11 / chroma_qp_offset=-4 / threads=6 / nr=0 / decimate=1 / mbaff=0 / bframes=4 / b_pyramid=0 / b_adapt=2 / b_bias=0 / direct=3 / wpredb=1 / keyint=250 / keyint_min=25 / scenecut=40 / rc=2pass / bitrate=4930 / ratetol=1.0 / qcomp=0.60 / qpmin=10 / qpmax=51 / qpstep=4 / cplxblur=20.0 / qblur=0.5 / vbv_maxrate=50000 / vbv_bufsize=50000 / ip_ratio=1.40 / pb_ratio=1.30 / aq=1:0.70
Language : English

Audio #1
ID : 2
Format : AC-3
Format/Info : Audio Coding 3
Mode extension : CM (complete main)
Codec ID : A_AC3
Duration : 1h 57mn
Bit rate mode : Constant
Bit rate : 192 Kbps
Channel(s) : 2 channels
Channel positions : Front: L R
Sampling rate : 48.0 KHz
Stream size : 162 MiB (3%)
Title : AC3 2.0 192k Mnogogoloska
Language : Russian

Audio #2
ID : 3
Format : AC-3
Format/Info : Audio Coding 3
Mode extension : CM (complete main)
Codec ID : A_AC3
Duration : 1h 57mn
Bit rate mode : Constant
Bit rate : 192 Kbps
Channel(s) : 2 channels
Channel positions : Front: L R
Sampling rate : 48.0 KHz
Stream size : 162 MiB (3%)
Title : AC3 2.0 192k 2Goloska
Language : Russian

Audio #3
ID : 4
Format : AC-3
Format/Info : Audio Coding 3
Mode extension : CM (complete main)
Codec ID : A_AC3
Duration : 1h 57mn
Bit rate mode : Constant
Bit rate : 384 Kbps
Channel(s) : 6 channels
Channel positions : Front: L C R, Side: L R, LFE
Sampling rate : 48.0 KHz
Stream size : 324 MiB (7%)
Title : AC3 5.1 384k
Language : English

Text #1
ID : 5
Format : UTF-8
Codec ID : S_TEXT/UTF8
Codec ID/Info : UTF-8 Plain Text
Language : Russian

Text #2
ID : 6
Format : UTF-8
Codec ID : S_TEXT/UTF8
Codec ID/Info : UTF-8 Plain Text
Language : English
Свернуть

"Знаете ли Вы, что..."
  • Джонни Депп очень переживал, что по сюжету ему необходимо говорить много гадостей в адрес «мамы», роль которой исполняла Дарлен Кэйтс. Поэтому, по окончании сьёмок он постоянно извинялся перед ней.
  • Депп лично выбрал Леонардо Ди Каприо на роль своего брата из многих молодых претендентов.
  • Фильм снят по одноименному роману Питера Хеджеса.
  • Фотография молодой миссис Грейп – это настоящая фотография Дарлен Кэйтс в молодости.
Свернуть
Скриншоты

Изображение
Изображение
Изображение
Свернуть
Оформлено by Евгений Лебедев
Не в сети
Профиль  
Начать новую темуОтветить на тему  [ 1 сообщение ] 
Вы не можете начинать темы
Вы не можете отвечать на сообщения
Вы не можете редактировать свои сообщения
Вы не можете удалять свои сообщения