Правила форума

  • В этом разделе создание новых тем Запрещено.
  • Для создания новых тем пользуйтесь Корневым разделом DVD и HD фильмы.
Начать новую темуОтветить на тему  [ 1 сообщение ] 
Торрент файл
Размер: 12.92 GB • Зарегистрирован: 1 год 7 месяцев • Статус: Проверено
Скачан: 116 раз • Желающих скачать: 0 • Поблагодарили: 20 раз
 Раздают: 0  |  0 KB/s  ]   Качают: 0  |  0 KB/s  ] 
 Полного источника не было 7 часов 
Сообщения
 Добавлено: 2015-05-01 21:42
Аватара пользователя
Стаж: 1 год 7 месяцев
Возраст: 35
Сообщений: 16
Спасибок: 218
Что мы делаем в темноте (Реальные упыри) / What We Do in the Shadows

Изображение


Год выпуска: 2014
Страна: Новая Зеландия, США (Unison Films, Defender Films, Funny or Die)
Жанр: Комедия, Ужасы
Продолжительность: 01:25:24
Перевод: Дублированный (iTunes), Двухголосый (закадровый, профессиональный) (Ozz.tv)
Субтитры: Английские (вшитые)

Режиссёр: Джемейн Клемент, Таика Вайтити
Продюсер: Эмануэл Майкл, Таика Вайтити, Челси Уинстэнли
В ролях: Джемейн Клемент, Таика Вайтити, Джеки Ван Бик, Риз Дэрби, Бен Френшам, Марио Джая, Бен Харкорт, Айзек Херон, Коэн Холлоуэй, Джейсон Хойте, Аарон Джексон, Натан Майстер, Майк Миноуг
Описание: История жизни Виаго, Дикона и Владислава — трёх соседей и по совместительству бессмертных вампиров, которые всего лишь пытаются выжить в современном мире, где есть арендная плата, фейсконтроль в ночных клубах, губительный солнечный свет и другие неприятности.


Дата мировой премьеры: 19 января 2014
Дата премьеры в РФ: 16 апреля 2015, «Вольга», «Арена»

Качество: BDRip 1080p
Формат: MKV
Видео кодек: H264 (AVC)
Аудио кодек: AC3 (Dolby Digital)
Видео: AVC/H.264, ~17,8 Mbps, 1920 х 1040, 24 fps
Аудио 1: Русский, AC3 5.1, 384 kbps, 48 kHz (DUB, iTunes)
Аудио 2: Русский, DTS 5.1, 1509 kbps, 48 kHz (DVO, Ozz.tv)
Аудио 3: Английский, DTS 5.1, 1509 kbps, 48 kHz (Original)
Субтитры: Английские (вшитые)отключаемые
ИзображениеИзображениеИзображение
MediaInfo

Общее
Уникальный идентификатор : 204258780041117400195913935881398336537 (0x99AACF61F611A26BB7473CC69E673C19)
Полное имя : What.We.Do.in.the.Shadows.2014.BDRip.1080p.mkv
Формат : Matroska
Версия формата : Version 2
Размер файла : 12,9 Гбайт
Продолжительность : 1 ч. 25 м.
Общий поток : 21,7 Мбит/сек
Дата кодирования : UTC 2015-04-30 01:23:26
Программа кодирования : mkvmerge v5.2.0 ('I can't explain') built on Dec 18 2011 18:12:03
Библиотека кодирования : libebml v1.2.3 + libmatroska v1.3.0

Видео
Идентификатор : 1
Формат : AVC
Формат/Информация : Advanced Video Codec
Профиль формата : High@L4.1
Параметр CABAC формата : Да
Параметр ReFrames формата : 4 кадра
Идентификатор кодека : V_MPEG4/ISO/AVC
Продолжительность : 1 ч. 25 м.
Битрейт : 17,8 Мбит/сек
Ширина : 1920 пикселей
Высота : 1040 пикселей
Соотношение сторон : 1,85:1
Режим частоты кадров : Постоянный
Частота кадров : 24,000 кадра/сек
Цветовое пространство : YUV
Субдискретизация насыщенности : 4:2:0
Битовая глубина : 8 бит
Тип развёртки : Прогрессивная
Бит/(Пиксели*Кадры) : 0.372
Размер потока : 10,6 Гбайт (82%)
Библиотека кодирования : x264 core 142 r2431+42 c69a006 tMod [8-bit@all X86_64]
Настройки программы : cabac=1 / ref=4 / deblock=1:-3:-3 / analyse=0x3:0x133 / me=esa / subme=10 / psy=1 / fade_compensate=0.00 / psy_rd=0.95:0.00 / mixed_ref=1 / me_range=32 / chroma_me=1 / trellis=2 / 8x8dct=1 / cqm=0 / deadzone=21,11 / fast_pskip=0 / chroma_qp_offset=-2 / threads=12 / lookahead_threads=3 / sliced_threads=0 / nr=0 / decimate=1 / interlaced=0 / bluray_compat=0 / constrained_intra=0 / fgo=0 / bframes=10 / b_pyramid=2 / b_adapt=2 / b_bias=0 / direct=3 / weightb=1 / open_gop=0 / weightp=2 / keyint=241 / keyint_min=24 / scenecut=40 / intra_refresh=0 / rc_lookahead=60 / rc=crf / mbtree=0 / crf=18.2000 / qcomp=0.65 / qpmin=0:0:0 / qpmax=69:69:69 / qpstep=4 / vbv_maxrate=50000 / vbv_bufsize=62500 / crf_max=0.0 / nal_hrd=none / filler=0 / ip_ratio=1.30 / pb_ratio=1.20 / aq=4:0.80 / aq-sensitivity=10.00 / aq-factor=1.00:1.00:1.00 / aq2=0 / aq3=0
Язык : English
Default : Да
Forced : Нет

Аудио #1
Идентификатор : 2
Формат : AC-3
Формат/Информация : Audio Coding 3
Расширение режима : CM (complete main)
Параметр Endianness формата : Big
Идентификатор кодека : A_AC3
Продолжительность : 1 ч. 25 м.
Вид битрейта : Постоянный
Битрейт : 384 Кбит/сек
Каналы : 6 каналов
Расположение каналов : Front: L C R, Side: L R, LFE
Частота : 48,0 КГц
Битовая глубина : 16 бит
Метод сжатия : С потерями
Размер потока : 235 Мбайт (2%)
Заголовок : DUB, iTunes
Язык : Russian
Default : Да
Forced : Нет

Аудио #2
Идентификатор : 3
Формат : DTS
Формат/Информация : Digital Theater Systems
Режим : 16
Параметр Endianness формата : Big
Идентификатор кодека : A_DTS
Продолжительность : 1 ч. 25 м.
Вид битрейта : Постоянный
Битрейт : 1509 Кбит/сек
Каналы : 6 каналов
Расположение каналов : Front: L C R, Side: L R, LFE
Частота : 48,0 КГц
Битовая глубина : 24 бит
Метод сжатия : С потерями
Размер потока : 922 Мбайт (7%)
Заголовок : DVO, Ozz.tv
Язык : Russian
Default : Нет
Forced : Нет

Аудио #3
Идентификатор : 4
Формат : DTS
Формат/Информация : Digital Theater Systems
Режим : 16
Параметр Endianness формата : Big
Идентификатор кодека : A_DTS
Продолжительность : 1 ч. 25 м.
Вид битрейта : Постоянный
Битрейт : 1509 Кбит/сек
Каналы : 6 каналов
Расположение каналов : Front: L C R, Side: L R, LFE
Частота : 48,0 КГц
Битовая глубина : 24 бит
Метод сжатия : С потерями
Размер потока : 922 Мбайт (7%)
Заголовок : Original
Язык : English
Default : Нет
Forced : Нет

Текст
Идентификатор : 5
Формат : UTF-8
Идентификатор кодека : S_TEXT/UTF8
Идентификатор кодека/Информация : UTF-8 Plain Text
Язык : English
Default : Нет
Forced : Нет

Меню
00:00:00.000 : en:00:00:00.000
00:09:20.083 : en:00:09:20.083
00:15:43.750 : en:00:15:43.750
00:22:30.042 : en:00:22:30.042
00:28:03.042 : en:00:28:03.042
00:35:17.875 : en:00:35:17.875
00:42:31.542 : en:00:42:31.542
00:48:28.333 : en:00:48:28.333
00:57:18.625 : en:00:57:18.625
01:01:14.333 : en:01:01:14.333
01:14:00.500 : en:01:14:00.500
01:22:01.750 : en:01:22:01.750

Свернуть


Скриншоты
Изображение
Изображение
Изображение
Изображение
Свернуть

Изображение


Изображение
Не в сети
Профиль  
Начать новую темуОтветить на тему  [ 1 сообщение ] 
Вы не можете начинать темы
Вы не можете отвечать на сообщения
Вы не можете редактировать свои сообщения
Вы не можете удалять свои сообщения