Правила форума

  • В этом разделе создание новых тем Запрещено.
  • Для создания новых тем пользуйтесь Корневым разделом DVD и HD фильмы.
Начать новую темуОтветить на тему  [ Сообщений: 3 ] 
Торрент файл
Размер: 4.58 GB • Зарегистрирован: 4 года 10 месяцев • Статус: Проверено
Скачан: 82 раза • Желающих скачать: 0 • Поблагодарили: 23 раза
 Раздают: 0  |  0 KB/s  ]   Качают: 0  |  0 KB/s  ] 
 Полного источника не было 1 год 5 месяцев 
Сообщения
 Добавлено: 2012-01-19 10:05
Top-seeder
Аватара пользователя
Стаж: 9 лет
Сообщений: 1399
Спасибок: 28651
Лайков: 8
Что скрывает ложь / Trespass

Изображение

Перевод: Профессиональный (полное дублирование)
Субтитры: Английские, русские
Формат: BDRip, MKV, H.264, AC3
Страна: США
Режиссер: Джоэл Шумахер
Жанр: триллер, драма, криминал
Продолжительность: 01:30:42
Год выпуска: 2011

В ролях: Николас Кейдж, Николь Кидман, Бен Мендельсон, Лиана Либерато, Кэм Жиганде, Джордана Спиро, Дэш Майок, Эмили Миде, Нико Торторелла, Брэндон Белнап

Описание: История повествует о муже с женой, которых взяла в заложники четверка жестоких преступников, ищущих легкий способ заработать. Ситуация принимает новый оборот, когда раскрываются предательство и обман.

Видео: 1280x530p (16:9), 23.976 fps, MPEG4 Video (H264), High@L4.1 ~ 6263 кбит/с, 0.385 bit/pixel
Аудио#1: Русский 48 kHz, (AC3), 2ch, ~ 320 Кбит/сек [Профессиональный (полное дублирование)]
Аудио#2: Английский 48 kHz, (AC3), 6ch, ~ 640 Кбит/сек [Оригинал]

MI
Общее
Уникальный идентификатор : 212445241975913191964800189237722278285 (0x9FD3771E51FC0FC4BD33B19DBA76E98D)
Полное имя : D:\Закачки\Что скрывает ложь.mkv
Формат : Matroska
Размер файла : 4,58 Гбайт
Продолжительность : 1 ч. 30 м.
Общий поток : 7224 Кбит/сек
Дата кодирования : UTC 2012-01-18 19:46:56
Программа кодирования : mkvmerge v5.0.1 ('Es ist Sommer') built on Nov 6 2011 16:23:40
Библиотека кодирования : libebml v1.2.2 + libmatroska v1.3.0

Видео
Идентификатор : 1
Формат : AVC
Формат/Информация : Advanced Video Codec
Профиль формата : High@L4.1
Параметр CABAC формата : Да
Параметр ReFrames формата : 12 кадров
Режим смешивания : Header stripping
Идентификатор кодека : V_MPEG4/ISO/AVC
Продолжительность : 1 ч. 30 м.
Битрейт : 6263 Кбит/сек
Ширина : 1280 пикс.
Высота : 530 пикс.
Соотношение сторон : 2,40:1
Частота кадров : 23,976 кадр/сек
Цветовое пространство : YUV
Подвыборка цветности : 4:2:0
Битовая глубина : 8 бит
Тип развёртки : Прогрессивная
Бит/(Пиксели*Кадры) : 0.385
Размер потока : 3,88 Гбайт (85%)
Заголовок : Trespass
Библиотека кодирования : x264 core 116 r2019 9cc407d
Настройки программы : cabac=1 / ref=12 / deblock=1:-3:-3 / analyse=0x3:0x133 / me=umh / subme=9 / psy=1 / psy_rd=1.10:0.02 / mixed_ref=1 / me_range=16 / chroma_me=1 / trellis=2 / 8x8dct=1 / cqm=0 / deadzone=21,11 / fast_pskip=0 / chroma_qp_offset=-3 / threads=12 / sliced_threads=0 / nr=0 / decimate=0 / interlaced=0 / bluray_compat=0 / constrained_intra=0 / bframes=8 / b_pyramid=2 / b_adapt=2 / b_bias=0 / direct=3 / weightb=1 / open_gop=0 / weightp=2 / keyint=250 / keyint_min=23 / scenecut=40 / intra_refresh=0 / rc=2pass / mbtree=0 / bitrate=6263 / ratetol=1.0 / qcomp=0.60 / qpmin=10 / qpmax=51 / qpstep=4 / cplxblur=20.0 / qblur=0.5 / ip_ratio=1.40 / pb_ratio=1.30 / aq=1:0.70
Язык : English

Аудио #1
Идентификатор : 2
Формат : AC-3
Формат/Информация : Audio Coding 3
Расширение режима : CM (complete main)
Режим смешивания : Header stripping
Идентификатор кодека : A_AC3
Продолжительность : 1 ч. 30 м.
Вид битрейта : Постоянный
Битрейт : 320 Кбит/сек
Каналы : 2 канала
Расположение каналов : Front: L R
Частота : 48,0 КГц
Битовая глубина : 16 бит
Метод сжатия : С потерями
Задержка видео : 2 с. 0 мс.
Размер потока : 208 Мбайт (4%)
Язык : Russian

Аудио #2
Идентификатор : 3
Формат : AC-3
Формат/Информация : Audio Coding 3
Расширение режима : CM (complete main)
Режим смешивания : Header stripping
Идентификатор кодека : A_AC3
Продолжительность : 1 ч. 30 м.
Вид битрейта : Постоянный
Битрейт : 640 Кбит/сек
Каналы : 6 каналов
Расположение каналов : Front: L C R, Side: L R, LFE
Частота : 48,0 КГц
Битовая глубина : 16 бит
Метод сжатия : С потерями
Размер потока : 415 Мбайт (9%)
Заголовок : Trespass
Язык : English

Текст
Идентификатор : 4
Формат : UTF-8
Идентификатор кодека : S_TEXT/UTF8
Идентификатор кодека/Информация : UTF-8 Plain Text
Заголовок : Trespass
Язык : English

Свернуть

Скриншоты
ИзображениеИзображениеИзображениеИзображение
Свернуть


Не в сети
Профиль  
 Добавлено: 2012-01-21 06:43 (спустя 1 день 20 часов)
Аватара пользователя
Стаж: 9 лет
Сообщений: 539
Спасибок: 1518
Русских субтитров нет
Не в сети
Профиль  
 Добавлено: 2014-01-24 21:14 (спустя 2 года)
Стаж: 7 лет 10 месяцев
Сообщений: 3
раздайте пож!
Не в сети
Профиль  
Начать новую темуОтветить на тему  [ Сообщений: 3 ] 
Вы не можете начинать темы
Вы не можете отвечать на сообщения
Вы не можете редактировать свои сообщения
Вы не можете удалять свои сообщения