Правила форума

  • В этом разделе создание новых тем Запрещено.
  • Для создания новых тем пользуйтесь Корневым разделом DVD и HD фильмы.
Начать новую темуОтветить на тему  [ Сообщений: 3 ] 
Торрент файл
Размер: 8.4 GB • Зарегистрирован: 4 года 10 месяцев • Статус: Проверено
Скачан: 170 раз • Желающих скачать: 0 • Поблагодарили: 32 раза
 Раздают: 0  |  0 KB/s  ]   Качают: 0  |  0 KB/s  ] 
 Полного источника не было 2 года 
Сообщения
 Добавлено: 2012-01-19 16:53
Top-releaser
Аватара пользователя
Стаж: 8 лет 9 месяцев
Сообщений: 479
Спасибок: 20188
Лайков: 16
Изображение

Что скрывает ложь

Trespass


«When terror is at your door, you can run, or you can fight.»


Год выпуска: 2011
Страна: ИзображениеСША; Millennium Films, Nu-Image Films, Winkler Films
Жанр: Триллер, драма, криминал
Продолжительность: 01:30:42
Перевод: Профессиональный (дублированный) [Лицензия], Любительский многоголосый, Оригинал
Субтитры: Русские, английские

Режиссёр: Джоэл Шумахер / Joel Schumacher

В ролях: Николас Кейдж, Николь Кидман, Бен Мендельсон, Лиана Либерато, Кэм Жиганде, Джордана Спиро, Дэш Майок, Эмили Миде, Нико Торторелла, Брэндон Белнап...

Описание: Идеальная семейная пара: успешный бизнесмен, торгующий бриллиантами, и его очаровательная жена-дизайнер. Но когда в их роскошный дом придут незваные гости и нависнет смертельная угроза, наружу вылезут измена и ложь.


Качество: BDRip 1080p
Формат: MKV

Видео: MPEG-4 AVC, 11.0 Мбит/сек, 1920x796, 23.976 кадр/с

Аудио 1: AC-3 at 320 Кбит/сек, 2 канала(ов), 48,0 КГц [Дубляж]
Аудио 2: AC-3 at 448 Кбит/сек, 6 канала(ов), 48,0 КГц [Многоголосый]
Аудио 3: DTS at 1510 Кбит/сек, 6 канала(ов), 48,0 КГц [Оригинал]
Раздача: Изображение

Изображение
MediaInfo

Общее
Уникальный идентификатор : 231849587279287409419862449585850562238 (0xAE6C9B34BD779CC79BA62F02EE9A36BE)
Полное имя : C:\Users\Домашний\Desktop\Chto.skryvaet.lozh.2011.BDRip.1080p[nntt].mkv
Формат : Matroska
Размер файла : 8,40 Гбайт
Продолжительность : 1 ч. 30 м.
Общий поток : 13,3 Мбит/сек
Дата кодирования : UTC 2012-01-19 04:59:10
Программа кодирования : mkvmerge v4.9.1 ('Ich will') сборка от Aug 10 2011 09:31:20
Библиотека кодирования : libebml v1.2.1 + libmatroska v1.2.0

Видео
Идентификатор : 1
Формат : AVC
Формат/Информация : Advanced Video Codec
Профиль формата : High@L4.1
Параметр CABAC формата : Да
Параметр ReFrames формата : 5 кадры
Идентификатор кодека : V_MPEG4/ISO/AVC
Продолжительность : 1 ч. 30 м.
Битрейт : 11,0 Мбит/сек
Ширина : 1920 пикс.
Высота : 796 пикс.
Соотношение сторон : 2,40:1
Частота кадров : 23,976 кадр/сек
Цветовое пространство : YUV
Подвыборка цветности : 4:2:0
Битовая глубина : 8 бит
Тип развёртки : Прогрессивная
Бит/(Пиксели*Кадры) : 0.301
Размер потока : 6,79 Гбайт (81%)
Библиотека кодирования : x264 core 114 r1913 5fd3dce
Настройки программы : cabac=1 / ref=5 / deblock=1:-3:-3 / analyse=0x3:0x133 / me=umh / subme=10 / psy=1 / psy_rd=1.00:0.00 / mixed_ref=1 / me_range=48 / chroma_me=1 / trellis=2 / 8x8dct=1 / cqm=0 / deadzone=21,11 / fast_pskip=1 / chroma_qp_offset=-2 / threads=12 / sliced_threads=0 / nr=0 / decimate=0 / interlaced=0 / constrained_intra=0 / bframes=6 / b_pyramid=2 / b_adapt=2 / b_bias=0 / direct=3 / weightb=1 / open_gop=0 / weightp=2 / keyint=250 / keyint_min=23 / scenecut=40 / intra_refresh=0 / rc_lookahead=60 / rc=2pass / mbtree=1 / bitrate=11041 / ratetol=1.0 / qcomp=0.60 / qpmin=0 / qpmax=69 / qpstep=4 / cplxblur=20.0 / qblur=0.5 / vbv_maxrate=50000 / vbv_bufsize=50000 / nal_hrd=none / ip_ratio=1.50 / aq=1:1.00
Язык : English

Аудио #1
Идентификатор : 2
Формат : AC-3
Формат/Информация : Audio Coding 3
Расширение режима : CM (complete main)
Идентификатор кодека : A_AC3
Продолжительность : 1 ч. 30 м.
Вид битрейта : Постоянный
Битрейт : 320 Кбит/сек
Канал(ы) : 2 канала(ов)
Расположение каналов : Front: L R
Частота : 48,0 КГц
Битовая глубина : 16 бит
Метод сжатия : С потерями
Размер потока : 208 Мбайт (2%)
Язык : Russian

Аудио #2
Идентификатор : 3
Формат : AC-3
Формат/Информация : Audio Coding 3
Расширение режима : CM (complete main)
Идентификатор кодека : A_AC3
Продолжительность : 1 ч. 30 м.
Вид битрейта : Постоянный
Битрейт : 448 Кбит/сек
Канал(ы) : 6 канала(ов)
Расположение каналов : Front: L C R, Side: L R, LFE
Частота : 48,0 КГц
Битовая глубина : 16 бит
Метод сжатия : С потерями
Размер потока : 291 Мбайт (3%)
Язык : Russian

Аудио #3
Идентификатор : 4
Формат : DTS
Формат/Информация : Digital Theater Systems
Идентификатор кодека : A_DTS
Продолжительность : 1 ч. 30 м.
Вид битрейта : Постоянный
Битрейт : 1510 Кбит/сек
Канал(ы) : 6 канала(ов)
Расположение каналов : Front: L C R, Side: L R, LFE
Частота : 48,0 КГц
Битовая глубина : 24 бит
Метод сжатия : С потерями
Задержка видео : 22 мс.
Размер потока : 980 Мбайт (11%)

Текст #1
Идентификатор : 5
Формат : UTF-8
Идентификатор кодека : S_TEXT/UTF8
Идентификатор кодека/Информация : UTF-8 Plain Text
Язык : Russian

Текст #2
Идентификатор : 6
Формат : UTF-8
Идентификатор кодека : S_TEXT/UTF8
Идентификатор кодека/Информация : UTF-8 Plain Text
Язык : English


Свернуть
Скриншоты

Изображение
Изображение
Изображение
Изображение
Изображение
Свернуть
_________________
Изображение
Изображение
Не в сети
Профиль  
 Добавлено: 2012-01-29 00:46 (спустя 9 дней)
Console V.I.P.
Аватара пользователя
Стаж: 9 лет
Сообщений: 1453
Спасибок: 690
Лайков: 12
фильм-говнецо, даже половину посмотреть не смог, игра актеров тоже крайне стремная.
Не в сети
Профиль  
 Добавлено: 2012-01-29 01:34 (спустя 48 минут)
Аватара пользователя
Стаж: 5 лет 6 месяцев
Возраст: 35
Сообщений: 51
Спасибок: 2
Лайков: 4
Чушь!!!!
Не в сети
Профиль  
Начать новую темуОтветить на тему  [ Сообщений: 3 ] 
Вы не можете начинать темы
Вы не можете отвечать на сообщения
Вы не можете редактировать свои сообщения
Вы не можете удалять свои сообщения