Правила форума

  • В этом разделе создание новых тем Запрещено.
  • Для создания новых тем пользуйтесь Корневым разделом DVD и HD фильмы.
Начать новую темуОтветить на тему  [ Сообщений: 4 ] 
Торрент файл
Размер: 8.23 GB • Зарегистрирован: 5 лет • Статус: Проверено
Скачан: 149 раз • Желающих скачать: 0 • Поблагодарили: 30 раз
 Раздают: 0  |  0 KB/s  ]   Качают: 0  |  0 KB/s  ] 
 Полного источника не было 2 года 3 месяца 
Сообщения
 Добавлено: 2011-11-27 09:48
Top-releaser
Аватара пользователя
Стаж: 7 лет 3 месяца
Возраст: 25
Сообщений: 1036
Спасибок: 2694
Лайков: 9
Чужие на районе / Attack the Block

«Реальные пацаны против пришельцев»

Изображение



Год выхода: 2011
Страна: Франция, Великобритания

Жанр: ужасы, фантастика, комедия
Продолжительность: 01:27:44
Перевод: Профессиональное (многоголосое) [лицензия]

Режиссер: Джо Корниш
Сценарий: Джо Корниш
Продюсер: Нира Парк, Джеймс Уилсон, Джеймс Биддл, ...
Оператор: Томас Тауненд
Композитор: Стивен Прайс

В ролях: Ник Фрост, Джоди Уиттакер, Люк Тредэвэй, Терри Нотари, John Boyega, Джои Анса, Алекс Эсмейл, Кристофер Уилсон, Flaminia Cinque, Ли Николас Харрис...

Описание: Инопланетное вторжение начинается… Но на этот раз пришельцев угораздило приземлиться не в том районе! Здесь всем заправляют реальные пацаны. Теперь они — последняя надежда человечества. Самые опасные существа во вселенной столкнутся с абсолютным злом. Кто кого?

ИзображениеИзображение

Pаздача группы:Изображение

Качество: BDRip 1080p
Формат: Mkv

Видео: MPEG4 Video (H264) 1920x800 24.00fps 11.4 Mbps
Аудио 1,2:[Rus] AC-3 48000Hz 6ch 256 Kbps
Аудио 3:[Eng] DTS 48000Hz 6ch 1 510 Kbps
Subtitle: Utf-8

Изображение

MediaInfo
General
Unique ID : 222993286702963811515380454070583782966 (0xA7C2F1E01B7A86D48725187E788B6E36)
Complete name : H:\Download\Attack the Block.DVD_RG(1080p).mkv
Format : Matroska
Format version : Version 2
File size : 8.23 GiB
Duration : 1h 27mn
Overall bit rate : 13.4 Mbps
Movie name : Attack the Block.BDRip.1080p by FSB
Encoded date : UTC 2011-11-26 08:25:07
Writing application : mkvmerge v5.0.0 ('Die Wahre Liebe') built on Sep 25 2011 20:33:49
Writing library : libebml v1.2.2 + libmatroska v1.3.0

Video
ID : 1
Format : AVC
Format/Info : Advanced Video Codec
Format profile : High@L4.1
Format settings, CABAC : Yes
Format settings, ReFrames : 5 frames
Codec ID : V_MPEG4/ISO/AVC
Duration : 1h 27mn
Bit rate : 11.4 Mbps
Width : 1 920 pixels
Height : 800 pixels
Display aspect ratio : 2.40:1
Frame rate : 24.000 fps
Color space : YUV
Chroma subsampling : 4:2:0
Bit depth : 8 bits
Scan type : Progressive
Bits/(Pixel*Frame) : 0.310
Stream size : 6.82 GiB (83%)
Title : Attack.The.Block.2011
Writing library : x264 core 116 r2074 2641b9e
Encoding settings : cabac=1 / ref=5 / deblock=1:-3:-3 / analyse=0x3:0x113 / me=umh / subme=10 / psy=1 / psy_rd=1.05:0.10 / mixed_ref=1 / me_range=48 / chroma_me=1 / trellis=2 / 8x8dct=1 / cqm=2 / deadzone=21,11 / fast_pskip=0 / chroma_qp_offset=-2 / threads=8 / sliced_threads=0 / nr=0 / decimate=1 / interlaced=0 / bluray_compat=0 / constrained_intra=0 / bframes=6 / b_pyramid=2 / b_adapt=2 / b_bias=0 / direct=3 / weightb=1 / open_gop=0 / weightp=2 / keyint=250 / keyint_min=24 / scenecut=40 / intra_refresh=0 / rc_lookahead=50 / rc=2pass / mbtree=1 / bitrate=11412 / ratetol=1.0 / qcomp=0.70 / qpmin=1 / qpmax=63 / qpstep=4 / cplxblur=20.0 / qblur=0.5 / vbv_maxrate=45000 / vbv_bufsize=40000 / nal_hrd=none / ip_ratio=1.40 / aq=2:0.90
Language : English

Audio #1
ID : 2
Format : AC-3
Format/Info : Audio Coding 3
Mode extension : CM (complete main)
Codec ID : A_AC3
Duration : 1h 27mn
Bit rate mode : Constant
Bit rate : 256 Kbps
Channel(s) : 6 channels
Channel positions : Front: L C R, Side: L R, LFE
Sampling rate : 48.0 KHz
Bit depth : 16 bits
Compression mode : Lossy
Stream size : 161 MiB (2%)
Title : MVO R5
Language : Russian

Audio #2
ID : 3
Format : AC-3
Format/Info : Audio Coding 3
Mode extension : CM (complete main)
Codec ID : A_AC3
Duration : 1h 27mn
Bit rate mode : Constant
Bit rate : 256 Kbps
Channel(s) : 6 channels
Channel positions : Front: L C R, Side: L R, LFE
Sampling rate : 48.0 KHz
Bit depth : 16 bits
Compression mode : Lossy
Stream size : 161 MiB (2%)
Title : MVO R5
Language : Russian

Audio #3
ID : 4
Format : DTS
Format/Info : Digital Theater Systems
Codec ID : A_DTS
Duration : 1h 27mn
Bit rate mode : Constant
Bit rate : 1 510 Kbps
Channel(s) : 6 channels
Channel positions : Front: L C R, Side: L R, LFE
Sampling rate : 48.0 KHz
Bit depth : 24 bits
Compression mode : Lossy
Stream size : 947 MiB (11%)
Title : DTS-CORE 1536K
Language : English

Text #1
ID : 5
Format : UTF-8
Codec ID : S_TEXT/UTF8
Codec ID/Info : UTF-8 Plain Text
Language : Russian

Text #2
ID : 6
Format : UTF-8
Codec ID : S_TEXT/UTF8
Codec ID/Info : UTF-8 Plain Text
Language : English

Menu
00:00:00.000 : :00:00:00.000
00:08:12.708 : :00:08:12.708
00:16:05.250 : :00:16:05.250
00:21:54.125 : :00:21:54.125
00:29:45.542 : :00:29:45.542
00:37:39.000 : :00:37:39.000
00:41:27.583 : :00:41:27.583
00:50:21.250 : :00:50:21.250
01:00:51.333 : :01:00:51.333
01:06:26.958 : :01:06:26.958
01:13:33.125 : :01:13:33.125
01:20:06.042 : :01:20:06.042


Свернуть
Скриншоты
Изображение
Изображение
Изображение
Изображение
Изображение
Изображение
Свернуть
Не в сети
Профиль  
 Добавлено: 2011-11-28 17:34 (спустя 1 день 7 часов)
Кинокомментатор
Аватара пользователя
Стаж: 9 лет 1 месяц
Сообщений: 1332
Лайков: 54
ничё так киношка))) травакуры спасли мир и изменились сами!))) в этом и есть суть:) но долбить не перестали)))
забавные монстры:) забавные парни:) нормалёк киношка:) 7/10
_________________
Я ВКонтакте
Не в сети
Профиль  
 Добавлено: 2011-12-26 15:16 (спустя 27 дней)
Аватара пользователя
Стаж: 8 лет 11 месяцев
Возраст: 27
Сообщений: 721
Спасибок: 5528
Лайков: 1
ничё фильм, мне понравился :)
_________________
Изображение
Не в сети
Профиль  
 Добавлено: 2011-12-26 21:44 (спустя 6 часов)
Стаж: 8 лет 11 месяцев
Сообщений: 432
Спасибок: 17
Лайков: 16
Сначала показалось - вообще трэшак, а потом это всё так классически красиво разыгрывается, что хочется посмотреть ещё раз.
Не в сети
Профиль  
Начать новую темуОтветить на тему  [ Сообщений: 4 ] 
Вы не можете начинать темы
Вы не можете отвечать на сообщения
Вы не можете редактировать свои сообщения
Вы не можете удалять свои сообщения