Правила форума

  • В этом разделе создание новых тем Запрещено.
  • Для создания новых тем пользуйтесь Корневым разделом DVD и HD фильмы.
Начать новую темуОтветить на тему  [ 1 сообщение ] 
Торрент файл
Размер: 5.31 GB • Зарегистрирован: 4 года 4 месяца • Статус: Проверено
Скачан: 17 раз • Желающих скачать: 0 • Поблагодарили: 3 раза
 Раздают: 0  |  0 KB/s  ]   Качают: 0  |  0 KB/s  ] 
 Полного источника не было 3 года 2 месяца 
Сообщения
 Добавлено: 2012-08-03 07:04
Top-releaser
Аватара пользователя
Стаж: 6 лет 7 месяцев
Сообщений: 2078
Спасибок: 3230
Лайков: 9
Изображение

Цыпочка / The Hot Chick


Год выпуска: 2002
Страна: США
Слоган: «Однажды она проснулась не в себе... В буквальном смысле!»
Жанр: фэнтези, комедия
Продолжительность: 01:44:22
Перевод: Профессиональный (полное дублирование)
Режиссер: Том Брэди
Сценарий: Том Брэди, Роб Шнайдер
Продюсер: Карр Д’Анджело, Джон Шнайдер, Джек Джиррапуто, Йен Макстон-Грэхэм, Робин Мулкахи Фисичелла
Оператор: Тим Сёрстедт
Композитор: Джон Дебни
В ролях: Роб Шнайдер, Анна Фэрис, Мэттью Лоуренс, Эрик Кристиан Олсен, Роберт Дави, Мелора Хардин, Александра Холден, Рэйчел МакАдамс, Марица Мюррэй, Фэй Хаузер, Джоди Лонг, Тиа Моури
Сборы в мире: $54 639 553
Описание: Однажды проснувшись, популярная, но довольно неприятная в общении примадонна средней школы, понимает, что она стала 30-летним мужчиной, мягко выражаясь, совсем не фотомодельного вида.
Во время того, как она пробует выяснить, почему это случилось и как, черт возьми, она может вернуть свой прежний облик, девушка начинает понимать насколько поверхностной и недалекой она была раньше.
Изображение
Раздача группы: Изображение
Качество: HDTVRip, 720p
Формат: Matroska
Видео: AVC; 1280x720 (16:9); 5470 Kbps; 23,976 fps; 0,248 bit/pixel
Аудио №1: Russian; AC3; 448 Kbps; CBR; 6 ch - Дубляж, R5
Аудио №2: Russian; AC3; 384 Kbps; CBR; 6 ch - Двухголосый закадровый
Аудио №3: Russian; AC3; 192 Kbps; CBR; 2 ch - Одноголосый закадровый, С.Визгунов
Аудио №4: English; AC3; 448 Kbps; CBR; 6 ch
Аудио №5: English; AC3; 192 Kbps; CBR; 2 ch - Commentary by Director Tom Brady
Субтитры: Russian, English

"Знаете ли Вы, что..."
  • Картина является режиссерским дебютом Тома Брэди.
Свернуть
MediaInfo
Общее
Уникальный идентификатор : 175279198574632682136812076288940073932 (0x83DD8BB410606FF49BD47DE2382A63CC)
Полное имя : Z:\WWW\TR-Downloads\The.Hot.Chick.720p[R.G.Daredevil].mkv
Формат : Matroska
Версия формата : Version 2
Размер файла : 5,31 Гбайт
Продолжительность : 1 ч. 44 м.
Общий поток : 7280 Кбит/сек
Название фильма : The Hot Chick (2002) - Release for HDClub by doc.logan
Дата кодирования : UTC 2011-04-09 15:53:03
Программа кодирования : mkvmerge v4.6.0 ('Still Crazy After All These Years') built on Mar 13 2011 18:33:29
Библиотека кодирования : libebml v1.2.0 + libmatroska v1.1.0

Видео
Идентификатор : 1
Формат : AVC
Формат/Информация : Advanced Video Codec
Профиль формата : High@L4.1
Параметр CABAC формата : Да
Параметр ReFrames формата : 8 кадров
Идентификатор кодека : V_MPEG4/ISO/AVC
Продолжительность : 1 ч. 44 м.
Битрейт : 5614 Кбит/сек
Ширина : 1280 пикселей
Высота : 720 пикселей
Соотношение сторон : 16:9
Частота кадров : 23,976 кадра/сек
Цветовое пространство : YUV
Субдискретизация насыщенности : 4:2:0
Битовая глубина : 8 бит
Тип развёртки : Прогрессивная
Бит/(Пиксели*Кадры) : 0.254
Размер потока : 3,99 Гбайт (75%)
Библиотека кодирования : x264 core 114 r1924 08d04a4
Настройки программы : cabac=1 / ref=8 / deblock=1:-3:-3 / analyse=0x3:0x133 / me=umh / subme=9 / psy=1 / psy_rd=0.90:0.00 / mixed_ref=1 / me_range=24 / chroma_me=1 / trellis=2 / 8x8dct=1 / cqm=0 / deadzone=21,11 / fast_pskip=1 / chroma_qp_offset=-2 / threads=6 / sliced_threads=0 / nr=0 / decimate=1 / interlaced=0 / constrained_intra=0 / bframes=5 / b_pyramid=2 / b_adapt=2 / b_bias=0 / direct=3 / weightb=1 / open_gop=0 / weightp=2 / keyint=250 / keyint_min=23 / scenecut=40 / intra_refresh=0 / rc=2pass / mbtree=0 / bitrate=5614 / ratetol=1.0 / qcomp=0.60 / qpmin=0 / qpmax=69 / qpstep=4 / cplxblur=20.0 / qblur=0.5 / ip_ratio=1.40 / pb_ratio=1.30 / aq=1:0.80
Язык : English
Default : Да
Forced : Нет

Аудио #1
Идентификатор : 2
Формат : AC-3
Формат/Информация : Audio Coding 3
Расширение режима : CM (complete main)
Параметр Endianness формата : Big
Идентификатор кодека : A_AC3
Продолжительность : 1 ч. 44 м.
Вид битрейта : Постоянный
Битрейт : 448 Кбит/сек
Каналы : 6 каналов
Расположение каналов : Front: L C R, Side: L R, LFE
Частота : 48,0 КГц
Битовая глубина : 16 бит
Метод сжатия : С потерями
Размер потока : 334 Мбайт (6%)
Заголовок : DD 5.1 @ 448 kbps – Дубляж (R5)
Язык : Russian
Default : Да
Forced : Нет

Аудио #2
Идентификатор : 3
Формат : AC-3
Формат/Информация : Audio Coding 3
Расширение режима : CM (complete main)
Параметр Endianness формата : Big
Идентификатор кодека : A_AC3
Продолжительность : 1 ч. 44 м.
Вид битрейта : Постоянный
Битрейт : 384 Кбит/сек
Каналы : 6 каналов
Расположение каналов : Front: L C R, Side: L R, LFE
Частота : 48,0 КГц
Битовая глубина : 16 бит
Метод сжатия : С потерями
Размер потока : 287 Мбайт (5%)
Заголовок : DD 5.1 @ 384 kbps – Двухголосый закадровый
Язык : Russian
Default : Нет
Forced : Нет

Аудио #3
Идентификатор : 4
Формат : AC-3
Формат/Информация : Audio Coding 3
Расширение режима : CM (complete main)
Параметр Endianness формата : Big
Идентификатор кодека : A_AC3
Продолжительность : 1 ч. 44 м.
Вид битрейта : Постоянный
Битрейт : 192 Кбит/сек
Каналы : 2 канала
Расположение каналов : Front: L R
Частота : 48,0 КГц
Битовая глубина : 16 бит
Метод сжатия : С потерями
Размер потока : 143 Мбайт (3%)
Заголовок : DD 2.0 @ 192 kbps – Одноголосый закадровый (С.Визгунов)
Язык : Russian
Default : Нет
Forced : Нет

Аудио #4
Идентификатор : 5
Формат : AC-3
Формат/Информация : Audio Coding 3
Расширение режима : CM (complete main)
Параметр Endianness формата : Big
Идентификатор кодека : A_AC3
Продолжительность : 1 ч. 44 м.
Вид битрейта : Постоянный
Битрейт : 448 Кбит/сек
Каналы : 6 каналов
Расположение каналов : Front: L C R, Side: L R, LFE
Частота : 48,0 КГц
Битовая глубина : 16 бит
Метод сжатия : С потерями
Размер потока : 334 Мбайт (6%)
Заголовок : DD 5.1 @ 448 kbps
Язык : English
Default : Нет
Forced : Нет

Аудио #5
Идентификатор : 6
Формат : AC-3
Формат/Информация : Audio Coding 3
Расширение режима : CM (complete main)
Параметр Endianness формата : Big
Идентификатор кодека : A_AC3
Продолжительность : 1 ч. 44 м.
Вид битрейта : Постоянный
Битрейт : 192 Кбит/сек
Каналы : 2 канала
Расположение каналов : Front: L R
Частота : 48,0 КГц
Битовая глубина : 16 бит
Метод сжатия : С потерями
Размер потока : 143 Мбайт (3%)
Заголовок : DD 2.0 @ 192 kbps – Commentary by director Tom Brady
Язык : English
Default : Нет
Forced : Нет

Текст #1
Идентификатор : 7
Формат : UTF-8
Идентификатор кодека : S_TEXT/UTF8
Идентификатор кодека/Информация : UTF-8 Plain Text
Заголовок : R5
Язык : Russian
Default : Нет
Forced : Нет

Текст #2
Идентификатор : 8
Формат : UTF-8
Идентификатор кодека : S_TEXT/UTF8
Идентификатор кодека/Информация : UTF-8 Plain Text
Язык : English
Default : Нет
Forced : Нет

Текст #3
Идентификатор : 9
Формат : UTF-8
Идентификатор кодека : S_TEXT/UTF8
Идентификатор кодека/Информация : UTF-8 Plain Text
Заголовок : Аудиокомментарий режиссёра Тома Брэди (R5)
Язык : Russian
Default : Нет
Forced : Нет

Меню
00:00:00.000 : en:Opening Credits/The Hot Chick
00:10:24.725 : en:The Thief
00:17:58.446 : en:The Next Morning
00:30:50.818 : en:The Suspects
00:41:05.499 : en:"This Is My Song"
00:50:30.698 : en:Catfight
00:53:02.183 : en:Confessions
01:03:58.673 : en:Mother-Daughter Bonding
01:13:04.051 : en:Cheerleading Competition
01:19:11.052 : en:The Prom
01:28:57.004 : en:"More Than A Woman"
01:34:22.964 : en:Happy Endings
01:37:26.414 : en:End Credits
Свернуть
Скриншоты
Изображение
Изображение
Изображение
Изображение
Изображение
Свернуть
Не в сети
Профиль  
Начать новую темуОтветить на тему  [ 1 сообщение ] 
Вы не можете начинать темы
Вы не можете отвечать на сообщения
Вы не можете редактировать свои сообщения
Вы не можете удалять свои сообщения