Правила форума

  • В этом разделе создание новых тем Запрещено.
  • Для создания новых тем пользуйтесь Корневым разделом DVD и HD фильмы.
Начать новую темуОтветить на тему  [ Сообщений: 2 ] 
Торрент файл
Размер: 7.91 GB • Зарегистрирован: 3 года 9 месяцев • Статус: Проверено
Скачан: 301 раз • Желающих скачать: 0 • Поблагодарили: 88 раз
 Раздают: 0  |  0 KB/s  ]   Качают: 0  |  0 KB/s  ] 
 Полного источника не было 6 часов 
Сообщения
 Добавлено: 2013-03-04 17:05
Top-releaser
Аватара пользователя
Стаж: 8 лет 9 месяцев
Сообщений: 479
Спасибок: 20190
Лайков: 16
Изображение

Цирк дю Солей: Сказочный мир

Cirque du Soleil: Worlds Away




Год выпуска: 2012
Страна: Изображение США; Cirque du Soleil Burlesco, Reel FX Creative Studios, Strange Weather Films
Жанр: Фэнтези
Продолжительность: 01:31:12
Перевод: Не требуется

Режиссёр: Эндрю Адамсон / Andrew Adamson

В ролях: Эрика Линц, Игорь Зарипов, Лутс Халбхюбнер, Джон Кларк, Даллас Барнетт, Таня Дрюери, Сара Хуболт, Аскья Мэйбери, Дэмиен Гордон, Зэк Бриклэнд, Ирен Год, Руфан Ган, Пей Пей Лэйн, Шаовэй Хин, Стивен Купер, Менкай Ши, Джеймс Флетчер, Венбо Чжэн, Мариска дю Плесси, Дэн Хейлс, Грэхэм Кэнди, Майк Бэйкер, Мэтт Джилландерс, Алан Томпсон, Джейсон Беррент, Жанна Блэкман, Николас Боск, Алессандро Д'Агостини, Кэролайн Лозон, Тарас Шевченко

Описание: Удивительная история двух влюбленных, которых разлучила судьба, по мотивам лучших шоу Cirque du Soleil. Им придется пройти через многое, чтобы снова быть вместе…


Качество: BDRip 1080p
Формат: MKV

Видео: AVC at 10,9 Мбит/сек, 1920 x 1080 (1.778) at 23.976 fps
Аудио : DTS at 1510 Кбит/сек, 6 канала(ов), 48,0 КГц [Оригинал]
Раздача: Изображение


Изображение
MediaInfo

Общее
Уникальный идентификатор : 240404043645641336686114658221951063614 (0xB4DC2277D35266BB9143FBBFC6F0963E)
Полное имя : C:\Users\Домашний\Desktop\Cirque.du.Soleil.Worlds.Away.2012.1080p.DTS.[nntt].mkv
Формат : Matroska
Версия формата : Version 4 / Version 2
Размер файла : 7,91 Гбайт
Продолжительность : 1 ч. 31 м.
Общий поток : 12,4 Мбит/сек
Дата кодирования : UTC 2010-02-22 21:41:31
Программа кодирования : mkvmerge v5.9.0 ('On The Loose') built on Dec 9 2012 15:37:01
Библиотека кодирования : libebml v1.3.0 + libmatroska v1.4.0

Видео
Идентификатор : 1
Формат : AVC
Формат/Информация : Advanced Video Codec
Профиль формата : High@L4.1
Параметр CABAC формата : Да
Параметр ReFrames формата : 4 кадра
Идентификатор кодека : V_MPEG4/ISO/AVC
Продолжительность : 1 ч. 31 м.
Битрейт : 10,9 Мбит/сек
Ширина : 1920 пикселей
Высота : 1080 пикселей
Соотношение сторон : 16:9
Режим частоты кадров : Постоянный
Частота кадров : 23,976 кадра/сек
Цветовое пространство : YUV
Субдискретизация насыщенности : 4:2:0
Битовая глубина : 8 бит
Тип развёртки : Прогрессивная
Бит/(Пиксели*Кадры) : 0.220
Размер потока : 6,79 Гбайт (86%)
Заголовок : Cirque.du.Soleil.Worlds.Away.2012
Библиотека кодирования : x264 core 125 r2208 d9d2288
Настройки программы : cabac=1 / ref=4 / deblock=1:-3:-3 / analyse=0x3:0x113 / me=umh / subme=10 / psy=1 / psy_rd=1.00:0.05 / mixed_ref=1 / me_range=32 / chroma_me=1 / trellis=2 / 8x8dct=1 / cqm=0 / deadzone=21,11 / fast_pskip=0 / chroma_qp_offset=-2 / threads=8 / lookahead_threads=1 / sliced_threads=0 / nr=0 / decimate=1 / interlaced=0 / bluray_compat=0 / constrained_intra=0 / bframes=6 / b_pyramid=2 / b_adapt=2 / b_bias=0 / direct=3 / weightb=1 / open_gop=0 / weightp=2 / keyint=250 / keyint_min=23 / scenecut=40 / intra_refresh=0 / rc=2pass / mbtree=0 / bitrate=10915 / ratetol=1.0 / qcomp=0.70 / qpmin=0 / qpmax=69 / qpstep=4 / cplxblur=20.0 / qblur=0.5 / ip_ratio=1.40 / pb_ratio=1.30 / aq=2:0.90
Язык : English
Default : Да
Forced : Нет

Аудио
Идентификатор : 2
Формат : DTS
Формат/Информация : Digital Theater Systems
Режим : 16
Параметр Endianness формата : Big
Идентификатор кодека : A_DTS
Продолжительность : 1 ч. 31 м.
Вид битрейта : Постоянный
Битрейт : 1509 Кбит/сек
Каналы : 6 каналов
Расположение каналов : Front: L C R, Side: L R, LFE
Частота : 48,0 КГц
Битовая глубина : 24 бит
Метод сжатия : С потерями
Размер потока : 984 Мбайт (12%)
Заголовок : DTS-CORE 1536K
Язык : English
Default : Да
Forced : Нет


Свернуть
Скриншоты

Изображение
Изображение
Изображение
Изображение
Изображение
Свернуть
_________________
Изображение
Изображение
Не в сети
Профиль  
 Добавлено: 2013-03-05 20:48 (спустя 1 день 3 часа)
Стаж: 8 лет 11 месяцев
Сообщений: 39
Лайков: 1
Джокер
Почему перевод не требуется?

ФААААААК!!!!!
На домашнем кинотеатре DVD-шник не воспроизводит MKV , включил на телеке, звука нет-пишет не подерживаемый кодек звука.
Заценил только картинку и офигел, она бесподобна!!! Сам понял почему перевод нэтрэба)))
Качаю версию в 4 гига с надеждой на лучшее.
За релиз спасибо!!!
Не в сети
Профиль  
Начать новую темуОтветить на тему  [ Сообщений: 2 ] 
Вы не можете начинать темы
Вы не можете отвечать на сообщения
Вы не можете редактировать свои сообщения
Вы не можете удалять свои сообщения