Правила форума

  • В этом разделе создание новых тем Запрещено.
  • Для создания новых тем пользуйтесь Корневым разделом DVD и HD фильмы.
Начать новую темуОтветить на тему  [ Сообщений: 4 ] 
Торрент файл
Размер: 4.36 GB • Зарегистрирован: 3 года 9 месяцев • Статус: Проверено
Скачан: 264 раза • Желающих скачать: 0 • Поблагодарили: 74 раза
 Раздают: 1  |  0 KB/s  ]   Качают: 0  |  0 KB/s  ] 
Сообщения
 Добавлено: 2013-03-04 18:15
Top-releaser
Аватара пользователя
Стаж: 8 лет 9 месяцев
Сообщений: 479
Спасибок: 20188
Лайков: 16
Изображение

Цирк дю Солей: Сказочный мир

Cirque du Soleil: Worlds Away




Год выпуска: 2012
Страна: Изображение США; Cirque du Soleil Burlesco, Reel FX Creative Studios, Strange Weather Films
Жанр: Фэнтези
Продолжительность: 01:31:12
Перевод: Не требуется

Режиссёр: Эндрю Адамсон / Andrew Adamson

В ролях: Эрика Линц, Игорь Зарипов, Лутс Халбхюбнер, Джон Кларк, Даллас Барнетт, Таня Дрюери, Сара Хуболт, Аскья Мэйбери, Дэмиен Гордон, Зэк Бриклэнд, Ирен Год, Руфан Ган, Пей Пей Лэйн, Шаовэй Хин, Стивен Купер, Менкай Ши, Джеймс Флетчер, Венбо Чжэн, Мариска дю Плесси, Дэн Хейлс, Грэхэм Кэнди, Майк Бэйкер, Мэтт Джилландерс, Алан Томпсон, Джейсон Беррент, Жанна Блэкман, Николас Боск, Алессандро Д'Агостини, Кэролайн Лозон, Тарас Шевченко

Описание: Удивительная история двух влюбленных, которых разлучила судьба, по мотивам лучших шоу Cirque du Soleil. Им придется пройти через многое, чтобы снова быть вместе…


Качество: BDRip 720p
Формат: MKV

Видео: AVC at 5350 Кбит/c, 1280 x 720 (1.778) at 23.976 fps
Аудио : DTS at 1510 Кбит/сек, 6 канала(ов), 48,0 КГц [Оригинал]
Раздача: Изображение


Изображение
MediaInfo

Общее
Уникальный идентификатор : 170973055440649593958990737133900460224 (0x80A0367488734AC8ACB6BBE355C4F0C0)
Полное имя : C:\Users\Домашний\Desktop\Cirque.du.Soleil.Worlds.Away.2012.720p.DTS.[nntt].mkv
Формат : Matroska
Версия формата : Version 2
Размер файла : 4,36 Гбайт
Продолжительность : 1 ч. 31 м.
Общий поток : 6848 Кбит/сек
Дата кодирования : UTC 2013-03-03 17:04:38
Программа кодирования : mkvmerge v4.9.1 ('Ich will') built on Jul 11 2011 23:53:15
Библиотека кодирования : libebml v1.2.1 + libmatroska v1.1.1

Видео
Идентификатор : 1
Формат : AVC
Формат/Информация : Advanced Video Codec
Профиль формата : High@L4.1
Параметр CABAC формата : Да
Параметр ReFrames формата : 5 кадров
Идентификатор кодека : V_MPEG4/ISO/AVC
Продолжительность : 1 ч. 31 м.
Битрейт : 5350 Кбит/сек
Ширина : 1280 пикселей
Высота : 720 пикселей
Соотношение сторон : 16:9
Режим частоты кадров : Постоянный
Частота кадров : 23,976 кадра/сек
Цветовое пространство : YUV
Субдискретизация насыщенности : 4:2:0
Битовая глубина : 8 бит
Тип развёртки : Прогрессивная
Бит/(Пиксели*Кадры) : 0.242
Размер потока : 3,31 Гбайт (76%)
Библиотека кодирования : x264 core 129 r2245 bc13772
Настройки программы : cabac=1 / ref=5 / deblock=1:0:0 / analyse=0x3:0x113 / me=umh / subme=8 / psy=1 / psy_rd=1.00:0.00 / mixed_ref=1 / me_range=16 / chroma_me=1 / trellis=1 / 8x8dct=1 / cqm=0 / deadzone=21,11 / fast_pskip=1 / chroma_qp_offset=-2 / threads=12 / lookahead_threads=2 / sliced_threads=0 / nr=0 / decimate=1 / interlaced=0 / bluray_compat=0 / constrained_intra=0 / bframes=3 / b_pyramid=2 / b_adapt=2 / b_bias=0 / direct=3 / weightb=1 / open_gop=0 / weightp=2 / keyint=240 / keyint_min=24 / scenecut=40 / intra_refresh=0 / rc_lookahead=50 / rc=2pass / mbtree=1 / bitrate=5350 / ratetol=1.0 / qcomp=0.60 / qpmin=0 / qpmax=69 / qpstep=4 / cplxblur=20.0 / qblur=0.5 / ip_ratio=1.40 / aq=1:1.00
Язык : English
Default : Да
Forced : Нет

Аудио
Идентификатор : 2
Формат : DTS
Формат/Информация : Digital Theater Systems
Режим : 16
Параметр Endianness формата : Big
Идентификатор кодека : A_DTS
Продолжительность : 1 ч. 31 м.
Вид битрейта : Постоянный
Битрейт : 1509 Кбит/сек
Каналы : 6 каналов
Расположение каналов : Front: L C R, Side: L R, LFE
Частота : 48,0 КГц
Битовая глубина : 24 бит
Метод сжатия : С потерями
Размер потока : 984 Мбайт (22%)
Язык : English
Default : Да
Forced : Нет

Текст
Идентификатор : 3
Формат : UTF-8
Идентификатор кодека : S_TEXT/UTF8
Идентификатор кодека/Информация : UTF-8 Plain Text
Заголовок : Romanian
Язык : Romanian
Default : Да
Forced : Нет

Меню
00:00:00.000 : en:00:00:00.000
00:07:01.921 : en:00:07:01.921
00:14:47.678 : en:00:14:47.678
00:18:59.138 : en:00:18:59.138
00:28:03.473 : en:00:28:03.473
00:37:52.187 : en:00:37:52.187
00:44:06.602 : en:00:44:06.602
00:46:47.263 : en:00:46:47.263
00:51:06.563 : en:00:51:06.563
00:55:44.758 : en:00:55:44.758
00:58:59.953 : en:00:58:59.953
01:03:59.836 : en:01:03:59.836
01:11:15.229 : en:01:11:15.229
01:20:49.845 : en:01:20:49.845


Свернуть
Скриншоты

Изображение
Изображение
Изображение
Изображение
Изображение
Свернуть
_________________
Изображение
Изображение
Не в сети
Профиль  
 Добавлено: 2013-03-06 18:08 (спустя 1 день 23 часа)
Аватара пользователя
Стаж: 7 лет 2 месяца
Сообщений: 59
Лайков: 5
Перевод: Не требуется-кому?мне нужен еще бы написали что видео не обязательно!!!!
Не в сети
Профиль  
 Добавлено: 2013-03-18 20:26 (спустя 12 дней)
Аватара пользователя
Стаж: 8 лет 11 месяцев
Возраст: 27
Сообщений: 52
Лайков: 1

deonis52:

Перевод: Не требуется-кому?мне нужен еще бы написали что видео не обязательно!!!!
Там нечего переводить, фильм без слов :)
Не в сети
Профиль  
 Добавлено: 2013-04-03 21:32 (спустя 16 дней)
Аватара пользователя
Стаж: 7 лет 10 месяцев
Сообщений: 56
для глухо немо слепых.... :hi_hi_hi:
Не в сети
Профиль  
Начать новую темуОтветить на тему  [ Сообщений: 4 ] 
Вы не можете начинать темы
Вы не можете отвечать на сообщения
Вы не можете редактировать свои сообщения
Вы не можете удалять свои сообщения