Правила форума

  • В этом разделе создание новых тем Запрещено.
  • Для создания новых тем пользуйтесь Корневым разделом DVD и HD фильмы.
Начать новую темуОтветить на тему  [ Сообщений: 4 ] 
Торрент файл
Размер: 4.63 GB • Зарегистрирован: 4 года 1 месяц • Статус: Проверено
Скачан: 91 раз • Желающих скачать: 0 • Поблагодарили: 18 раз
 Раздают: 0  |  0 KB/s  ]   Качают: 0  |  0 KB/s  ] 
 Полного источника не было 1 год 1 месяц 
Сообщения
 Добавлено: 2012-10-30 03:05
Аватара пользователя
Стаж: 7 лет 4 месяца
Возраст: 21
Сообщений: 419
Спасибок: 12709
Лайков: 18
Изображение
Цунами 3D / Bait

«Охота началась»

Год выпуска: 2011
Страна: Австралия, Сингапур
Жанр: Ужасы, боевик, триллер
Продолжительность: 01:33:17
Перевод: Профессиональный (полное дублирование) [Лицензия]

Режиссер: Кимбл Рендалл
Сценарий: Шэйн Армстронг, Дункан Кеннеди, Джон Ким
Продюсер: Питер Барбер, Гари Хэмилтон, Тодд Фелмэн
Оператор: Росс Эмери
Композитор: Джо Нг, Алекс Ох

В ролях: Шарни Винсон, Завьер Сэмюэл, Фиби Тонкин, Джулиан МакМэхон, Кариба Хейн, Алекс Расселл, Линкольн Льюис, Элис Паркинсон, Дэниэл Уилли, Ричард Бранкатисано

Описание: Чудовищное цунами обрушивается на курортный город. Из морских глубин на затопленные улицы вырываются голодные и жаждущие крови акулы. Начинается охота. Оказавшись в ловушке стихии, чудом уцелевшие люди пытаются выжить. Сможет ли Джош спасти жизнь девушки, которую он всегда любил, но однажды уже потерял?

Раздача: Изображение


Изображение

Бюджет: AUD 30 000 000
Сборы в мире: $25 830 380
Сборы в России: $2 455 613
Мировая премьера: 5 сентября 2012
Премьера РФ: 27 сентября 2012, «Каскад», «Премиум Фильм»
Релиз на DVD: 1 ноября 2012, «CP Дистрибуция»
Релиз на Blu-Ray: 1 ноября 2012, «CP Дистрибуция»

Качество: BDRip [720p]
Формат: Matroska
Видео: 1280x720, 23.976 fps, 6034 Kbps
Аудио:
Аудио 1: АС3, 48 kHz, 6 ch, 448 Kbps [Russian]
Аудио 2: АС3, 48 kHz, 6 ch, 640 Kbps [English]


Изображение

MediaInfo:
General
Unique ID : 243508111662052311074052739225876343975 (0xB731F4D64F677E1EA40B53BA235EACA7)
Complete name : D:Torrent µTorrentCunami.2011.D.BDRip.720p.mkv
Format : Matroska
Format version : Version 2
File size : 4.63 GiB
Duration : 1h 33mn
Overall bit rate : 7 113 Kbps
Encoded date : UTC 2012-10-29 18:08:37
Writing application : mkvmerge v4.9.1 ('Ich will') сборка от Jul 11 2011 23:53:15
Writing library : libebml v1.2.1 + libmatroska v1.1.1

Video
ID : 1
Format : AVC
Format/Info : Advanced Video Codec
Format profile : High@L4.1
Format settings, CABAC : Yes
Format settings, ReFrames : 12 frames
Codec ID : V_MPEG4/ISO/AVC
Duration : 1h 33mn
Bit rate : 6 034 Kbps
Width : 1 280 pixels
Height : 720 pixels
Display aspect ratio : 16:9
Frame rate : 23.976 fps
Color space : YUV
Chroma subsampling : 4:2:0
Bit depth : 8 bits
Scan type : Progressive
Bits/(Pixel*Frame) : 0.273
Stream size : 3.83 GiB (83%)
Title : Bait.2012.BluRay.720p.AC3.x264-CHD
Writing library : x264 core 124 r2197 69a0443
Encoding settings : cabac=1 / ref=12 / deblock=1:-3:-3 / analyse=0x3:0x113 / me=umh / subme=10 / psy=1 / psy_rd=1.10:0.15 / mixed_ref=1 / me_range=32 / chroma_me=1 / trellis=2 / 8x8dct=1 / cqm=0 / deadzone=21,11 / fast_pskip=0 / chroma_qp_offset=-2 / threads=18 / sliced_threads=0 / nr=0 / decimate=1 / interlaced=0 / bluray_compat=0 / constrained_intra=0 / bframes=6 / b_pyramid=2 / b_adapt=2 / b_bias=0 / direct=3 / weightb=1 / open_gop=0 / weightp=2 / keyint=250 / keyint_min=23 / scenecut=40 / intra_refresh=0 / rc_lookahead=60 / rc=2pass / mbtree=0 / bitrate=6034 / ratetol=1.0 / qcomp=0.60 / qpmin=0 / qpmax=69 / qpstep=4 / cplxblur=20.0 / qblur=0.5 / vbv_maxrate=40000 / vbv_bufsize=30000 / nal_hrd=none / ip_ratio=1.40 / pb_ratio=1.30 / aq=1:0.80
Language : English
Default : Yes
Forced : Yes

Audio #1
ID : 2
Format : AC-3
Format/Info : Audio Coding 3
Mode extension : CM (complete main)
Format settings, Endianness : Big
Codec ID : A_AC3
Duration : 1h 33mn
Bit rate mode : Constant
Bit rate : 448 Kbps
Channel(s) : 6 channels
Channel positions : Front: L C R, Side: L R, LFE
Sampling rate : 48.0 KHz
Bit depth : 16 bits
Compression mode : Lossy
Stream size : 299 MiB (6%)
Title : DD 5.1 @ 448 kbps - Dub, BD RUS
Language : Russian
Default : Yes
Forced : Yes

Audio #2
ID : 3
Format : AC-3
Format/Info : Audio Coding 3
Mode extension : CM (complete main)
Format settings, Endianness : Big
Codec ID : A_AC3
Duration : 1h 33mn
Bit rate mode : Constant
Bit rate : 640 Kbps
Channel(s) : 6 channels
Channel positions : Front: L C R, Side: L R, LFE
Sampling rate : 48.0 KHz
Bit depth : 16 bits
Compression mode : Lossy
Stream size : 427 MiB (9%)
Title : DD 5.1 @ 640 kbps
Language : English
Default : No
Forced : No
Свернуть


Скриншоты:


Изображение


Изображение


Изображение


Изображение


Свернуть
Не в сети
Профиль  
 Добавлено: 2012-10-30 19:45 (спустя 16 часов)
Модератор
Аватара пользователя
Стаж: 9 лет
Сообщений: 3446
Спасибок: 1556
Лайков: 77
Подскажите кто нибудь, что за изюминка есть в данном формате файла, у меня его что то телек не воспроизводит. в чем может быть проблема?
_________________
Пока тут пусто.
Не в сети
Профиль  
 Добавлено: 2012-10-31 17:58 (спустя 22 часа)
Стаж: 5 лет 3 месяца
Сообщений: 151
Лайков: 2
Мдааааа! Очередной отстойный фильмец!
Не в сети
Профиль  
 Добавлено: 2012-12-06 21:19 (спустя 1 месяц 6 дней)
Стаж: 7 лет 9 месяцев
Сообщений: 17
Народ подскажите какое качество лучше качать для телека lg с пассивным 3d? :du_ma_et:
Не в сети
Профиль  
Начать новую темуОтветить на тему  [ Сообщений: 4 ] 
Вы не можете начинать темы
Вы не можете отвечать на сообщения
Вы не можете редактировать свои сообщения
Вы не можете удалять свои сообщения