Правила форума

  • В этом разделе создание новых тем Запрещено.
  • Для создания новых тем пользуйтесь Корневым разделом DVD и HD фильмы.
Начать новую темуОтветить на тему  [ 1 сообщение ] 
Торрент файл
Размер: 20.07 GB • Зарегистрирован: 4 года 2 месяца • Статус: Проверено
Скачан: 60 раз • Желающих скачать: 0 • Поблагодарили: 8 раз
 Раздают: 0  |  0 KB/s  ]   Качают: 0  |  0 KB/s  ] 
 Полного источника не было 1 год 10 месяцев 
Сообщения
 Добавлено: 2012-09-24 20:17
Модератор
Аватара пользователя
Стаж: 8 лет 1 месяц
Сообщений: 1991
Спасибок: 129866
Лайков: 20
Цветы войны / Jin líng shí san chai

Изображение
Год выпуска: 2011
Страна: Изображение Китай, Изображение Гонконг
Жанр: драма, военный, история
Продолжительность:
02:25:59

Перевод: Профессиональный (полное дублирование) [лицензия]

Режиссер: Чжан Имоу
Сценарий: Лю Хэн, Гелинь Ян
Продюсер: Чжан Вэйпин, Чаоинь Ден, Уильям Конг, Дэвид Линде, Лео Ши Янг
Оператор: Чжао Сяодин
Композитор: Циган Чен

В ролях:
Кристиан Бэйл (John Miller), Ни Ни (Yu Mo), Синю Чжан (Shu), Тяньюань Хуанг (George Chen), Хань Ситин (Yi), Дуду Чжан (Ling), Тун Давэй (Major Li), Ацуро Ватабэ (Colonel Hasegawa), Цао Кэфань (Mr. Meng), Юань Яньчунци (Mosquito), Джиа Сунь (Hua), Юэминь Ли (Dou)
Дублёры: Александр Коврижных (John Miller) (John Miller), Рамиля Искандер (Yu Mo) (Yu Mo), Диомид Виноградов (George Chen) (George Chen), Александра Остроухова, Моника Санторо (Winchester Cathedral Student) (Winchester Cathedral Student)

Описание: Фильм основан на реальных событиях. Действия разворачиваются в период японо-китайской войны. Главный герой, американский гробовщик Джон, направляется в Католическую церковь в Нанкине, чтобы подготовить священника к похоронам. По прибытию он оказывается единственным мужчиной среди учениц монастыря и проституток из соседнего борделя в эпицентре военных действий. Оказавшись в таком положении, он выдаёт себя за священника и пытается спасти обе группы от ужасов вторжения японской армии...


Изображение: 7.881 (3 490)
Изображение: 7.60 (13 289)

MPAA: Изображение - Лицам до 17 лет обязательно присутствие взрослого

Доп. Информация

Бюджет: $94 000 000
Сборы в США: $311 434
Сборы в России: $197 996
Сборы в мире: $76 311 434
Мировая премьера: 16 декабря 2011
Изображение Релиз на DVD: 10 сентября 2012, «Новый Диск»

Свернуть


Качество: BDRip 1080p R5

Формат: MKV
Видео: AVC; 1920x816 (2.35:1); 18268 Kbps; 24 fps; 0,486 bpp
Аудио №1: русский; AC3; 384 Kbps; CBR; 6 ch; 16 bit
Аудио №2: китайский; AC3; 640 Kbps; CBR; 6 ch; 16 bit
Субтитры №1: русские
Субтитры №2: русские
Субтитры №3: английские



Знаете ли Вы, что...
  • Рабочее название картины - «13 женщин Нанкина».
  • В 2011 году Чжан Имоу выбрал палестинского режиссера Анну-Мари Ясир как свою первую протеже и пригласил ее работать вместе с ним на съемочной площадке в процессе производства фильма и также сотрудничать с ним во время монтажа и постпродакшн.
  • Фильм был снят за 164 дня с 18-часовым ежедневным рабочим графиком.
  • Официальное представление Китая в категории «Лучший фильм» на иностранном языке на 84-ой церемонии награждения Оскар 2012.
  • Стивен Спилберг порекомендовал Кристиана Бэйла на главную роль.
  • Второй фильм, полностью финансируемый Китаем, с голливудской звездой в главной роли.
Свернуть
BDInfo
General
Unique ID : 226673302716258691845339978615616717141 (0xAA87B0AC52ACBC939F67926DF8044155)
Complete name : E:\The.Flowers.of.War.2011.1080p.mkv
Format : Matroska
Format version : Version 2
File size : 20.1 GiB
Duration : 2h 25mn
Overall bit rate : 19.7 Mbps
Movie name : The Flowers of War
Encoded date : UTC 2012-09-10 12:43:31
Writing application : mkvmerge v3.4.0 ('Rapunzel') сборка от May 15 2010 09:38:20
Writing library : libebml v0.8.0 + libmatroska v0.9.0

Video
ID : 1
Format : AVC
Format/Info : Advanced Video Codec
Format profile : High@L4.1
Format settings, CABAC : Yes
Format settings, ReFrames : 5 frames
Codec ID : V_MPEG4/ISO/AVC
Duration : 2h 25mn
Bit rate : 18.3 Mbps
Width : 1 920 pixels
Height : 816 pixels
Display aspect ratio : 2.35:1
Frame rate mode : Constant
Frame rate : 24.000 fps
Color space : YUV
Chroma subsampling : 4:2:0
Bit depth : 8 bits
Scan type : Progressive
Bits/(Pixel*Frame) : 0.486
Stream size : 18.6 GiB (93%)
Writing library : x264 core 125 r2200 999b753
Encoding settings : cabac=1 / ref=5 / deblock=1:-3:-3 / analyse=0x3:0x113 / me=tesa / subme=11 / psy=1 / psy_rd=1.05:0.00 / mixed_ref=1 / me_range=32 / chroma_me=1 / trellis=2 / 8x8dct=1 / cqm=0 / deadzone=21,11 / fast_pskip=0 / chroma_qp_offset=-2 / threads=12 / lookahead_threads=2 / sliced_threads=0 / nr=0 / decimate=0 / interlaced=0 / bluray_compat=0 / constrained_intra=0 / bframes=7 / b_pyramid=2 / b_adapt=2 / b_bias=0 / direct=3 / weightb=1 / open_gop=0 / weightp=2 / keyint=250 / keyint_min=24 / scenecut=40 / intra_refresh=0 / rc_lookahead=60 / rc=crf / mbtree=1 / crf=17.6 / qcomp=0.70 / qpmin=0 / qpmax=69 / qpstep=4 / ip_ratio=1.40 / aq=2:0.80 / zones=0,2904,b=0.1/202324,210231,b=0.1
Language : Chinese
Default : No
Forced : No

Audio #1
ID : 2
Format : AC-3
Format/Info : Audio Coding 3
Mode extension : CM (complete main)
Format settings, Endianness : Big
Codec ID : A_AC3
Duration : 2h 25mn
Bit rate mode : Constant
Bit rate : 384 Kbps
Channel(s) : 6 channels
Channel positions : Front: L C R, Side: L R, LFE
Sampling rate : 48.0 KHz
Bit depth : 16 bits
Compression mode : Lossy
Stream size : 401 MiB (2%)
Title : AC3 5.1 @ 384 kbps - Дубляж, R5
Language : Russian
Default : Yes
Forced : No

Audio #2
ID : 3
Format : AC-3
Format/Info : Audio Coding 3
Mode extension : CM (complete main)
Format settings, Endianness : Big
Codec ID : A_AC3
Duration : 2h 25mn
Bit rate mode : Constant
Bit rate : 640 Kbps
Channel(s) : 6 channels
Channel positions : Front: L C R, Side: L R, LFE
Sampling rate : 48.0 KHz
Bit depth : 16 bits
Compression mode : Lossy
Stream size : 668 MiB (3%)
Title : AC3 5.1 @ 640 kbps
Language : Chinese
Default : No
Forced : No

Text #1
ID : 4
Format : UTF-8
Codec ID : S_TEXT/UTF8
Codec ID/Info : UTF-8 Plain Text
Title : Forced
Language : Russian
Default : Yes
Forced : No

Text #2
ID : 5
Format : UTF-8
Codec ID : S_TEXT/UTF8
Codec ID/Info : UTF-8 Plain Text
Language : Russian
Default : No
Forced : No

Text #3
ID : 6
Format : UTF-8
Codec ID : S_TEXT/UTF8
Codec ID/Info : UTF-8 Plain Text
Language : English
Default : No
Forced : No

Menu
00:00:00.000 : en:Chapter 1
00:08:11.791 : en:Chapter 2
00:15:41.000 : en:Chapter 3
00:22:23.208 : en:Chapter 4
00:29:36.250 : en:Chapter 5
00:35:34.500 : en:Chapter 6
00:40:04.458 : en:Chapter 7
00:51:17.416 : en:Chapter 8
01:01:56.541 : en:Chapter 9
01:07:56.916 : en:Chapter 10
01:14:03.791 : en:Chapter 11
01:21:18.541 : en:Chapter 12
01:30:07.083 : en:Chapter 13
01:37:42.958 : en:Chapter 14
01:43:31.416 : en:Chapter 15
01:49:49.625 : en:Chapter 16
01:59:46.625 : en:Chapter 17
02:05:38.291 : en:Chapter 18
02:10:29.583 : en:Chapter 19
02:17:06.583 : en:Chapter 20

Свернуть
Скриншоты
Изображение
Изображение
Изображение
Изображение
Свернуть

_________________
Себе ты можешь не качать, но раздавать другим обязан!
Не в сети
Профиль  
Начать новую темуОтветить на тему  [ 1 сообщение ] 
Вы не можете начинать темы
Вы не можете отвечать на сообщения
Вы не можете редактировать свои сообщения
Вы не можете удалять свои сообщения