Правила форума

  • В этом разделе создание новых тем Запрещено.
  • Для создания новых тем пользуйтесь Корневым разделом DVD и HD фильмы.
Начать новую темуОтветить на тему  [ Сообщений: 5 ] 
Торрент файл
Размер: 4.48 GB • Зарегистрирован: 2 года 10 месяцев • Статус: Проверено
Скачан: 68 раз • Желающих скачать: 0 • Поблагодарили: 28 раз
 Раздают: 0  |  0 KB/s  ]   Качают: 0  |  0 KB/s  ] 
 Полного источника не было 2 часа 58 минут 
Сообщения
 Добавлено: 2014-01-13 14:50
Книголюб
Аватара пользователя
Стаж: 7 лет 2 месяца
Сообщений: 2823
Спасибок: 48825
Лайков: 73
Да здравствует Франция!
Vive la France

Изображение


Год выпуска: 2013
Страна: Франция
Жанр: комедия
Продолжительность: 01:34:00
Перевод: Профессиональный (дубляж)

Режиссёр: Микаэль Юн
В ролях: Хосе Гарсия, Микаэль Юн, Изабель Фунаро, Эри Абиттан, Жером Коммандёр, Венсан Москато, Жан Франсуа Кэйри, Франк Гастамбид, Мусса Мааскри, Хамид Наджах
Описание: Два пастуха из несуществующей арабской страны Табулистан отправляются в Париж, чтобы взорвать Эйфелеву башню.
Мировая премьера: 16 января 2013
Премьера в России: 28 ноября 2013, «Каскад»
Изображение 6.111226

Качество: HQRip 720p
Формат: MKV
Видео кодек: H.264
Аудио кодек: AC3 (Dolby Digital)
Видео: 1280x534 24fps 5 391 Kbps
Аудио #1: Rus:48000Hz 6ch 448 Kbps
Аудио #2: French:48000Hz 6ch 640 Kbps
MediaInfo
General
Unique ID : 240751808689207671609793624027408335893 (0xB51F1C9BC75421F09DC3949E70278415)
Complete name : K:\Torrent\Vive.la.France..mkv
Format : Matroska
Format version : Version 4 / Version 2
File size : 4.48 GiB
Duration : 1h 36mn
Overall bit rate : 6 611 Kbps
Encoded date : UTC 2014-01-12 15:35:45
Writing application : mkvmerge v6.1.0 ('Old Devil') built on Mar 4 2013 09:10:42
Writing library : libebml v1.3.0 + libmatroska v1.4.0

Video
ID : 1
Format : AVC
Format/Info : Advanced Video Codec
Format profile : High@L4.1
Format settings, CABAC : Yes
Format settings, ReFrames : 12 frames
Codec ID : V_MPEG4/ISO/AVC
Duration : 1h 36mn
Bit rate : 5 391 Kbps
Width : 1 280 pixels
Height : 534 pixels
Display aspect ratio : 2.40:1
Frame rate : 24.000 fps
Color space : YUV
Chroma subsampling : 4:2:0
Bit depth : 8 bits
Scan type : Progressive
Bits/(Pixel*Frame) : 0.329
Stream size : 3.65 GiB (82%)
Title : Vive la France 2013
Language : French
Default : Yes
Forced : No

Audio #1
ID : 2
Format : AC-3
Format/Info : Audio Coding 3
Mode extension : CM (complete main)
Codec ID : A_AC3
Duration : 1h 36mn
Bit rate mode : Constant
Bit rate : 448 Kbps
Channel(s) : 6 channels
Channel positions : Front: L C R, Side: L R, LFE
Sampling rate : 48.0 KHz
Bit depth : 16 bits
Compression mode : Lossy
Stream size : 311 MiB (7%)
Language : Russian
Default : Yes
Forced : No

Audio #2
ID : 3
Format : AC-3
Format/Info : Audio Coding 3
Mode extension : CM (complete main)
Codec ID : A_AC3
Duration : 1h 36mn
Bit rate mode : Constant
Bit rate : 640 Kbps
Channel(s) : 6 channels
Channel positions : Front: L C R, Side: L R, LFE
Sampling rate : 48.0 KHz
Bit depth : 16 bits
Compression mode : Lossy
Stream size : 444 MiB (10%)
Language : French
Default : No
Forced : No

Text #1
ID : 4
Format : PGS
Muxing mode : zlib
Codec ID : S_HDMV/PGS
Codec ID/Info : The same subtitle format used on BDs/HD-DVDs
Language : English
Default : No
Forced : No

Text #2
ID : 5
Format : PGS
Muxing mode : zlib
Codec ID : S_HDMV/PGS
Codec ID/Info : The same subtitle format used on BDs/HD-DVDs
Language : French
Default : No
Forced : No

Menu
00:00:00.000 : en:00:00:00.000
00:04:39.542 : en:00:04:39.542
00:12:41.000 : en:00:12:41.000
00:22:55.792 : en:00:22:55.792
00:29:17.208 : en:00:29:17.208
00:36:38.000 : en:00:36:38.000
00:46:50.708 : en:00:46:50.708
00:55:16.042 : en:00:55:16.042
01:05:50.625 : en:01:05:50.625
01:15:43.667 : en:01:15:43.667
01:24:54.125 : en:01:24:54.125
01:32:39.417 : en:01:32:39.417


Свернуть

Скриншоты
Изображение
Изображение
Изображение
Изображение
Свернуть
 Kilovat нравится это.
Не в сети
Профиль  
 Добавлено: 2014-01-14 05:21 (спустя 14 часов)
Стаж: 8 лет 1 месяц
Сообщений: 215
Лайков: 24
Это что? Борат на французский лад?
Не в сети
Профиль  
 Добавлено: 2014-01-14 23:37 (спустя 18 часов)
Стаж: 5 лет 3 месяца
Сообщений: 151
Лайков: 2
Киношка :co_ol: во))
Не в сети
Профиль  
 Добавлено: 2014-01-25 12:55 (спустя 10 дней)
Аватара пользователя
Стаж: 8 лет 9 месяцев
Сообщений: 822
Спасибок: 100
Убойная комедия
Не в сети
Профиль  
 Добавлено: 2014-02-01 10:05 (спустя 6 дней)
Аватара пользователя
Стаж: 8 лет 2 месяца
Возраст: 32
Сообщений: 172
Спасибок: 520
Лайков: 3
Смешная, добрая комедия. Можно посмеяться !) :co_ol:
Не в сети
Профиль  
Начать новую темуОтветить на тему  [ Сообщений: 5 ] 
Вы не можете начинать темы
Вы не можете отвечать на сообщения
Вы не можете редактировать свои сообщения
Вы не можете удалять свои сообщения