Правила форума

  • В этом разделе создание новых тем Запрещено.
  • Для создания новых тем пользуйтесь Корневым разделом DVD и HD фильмы.
Начать новую темуОтветить на тему  [ Сообщений: 8 ] 
Торрент файл
Размер: 5.94 GB • Зарегистрирован: 5 лет 3 месяца • Статус: Проверено
Скачан: 98 раз • Желающих скачать: 0 • Поблагодарили: 15 раз
 Раздают: 0  |  0 KB/s  ]   Качают: 0  |  0 KB/s  ] 
 Полного источника не было 3 года 1 месяц 
Сообщения
 Добавлено: 2011-09-06 18:14
Аватара пользователя
Стаж: 8 лет 10 месяцев
Сообщений: 26
Спасибок: 172
Далеко по соседству / Quartier lointain

Изображение


Год выпуска: 2010
Страна: Германия, Франция, Бельгия, Люксембург (Entre Chien et Loup)
Слоган: «Волшебное путешествие во времени»
Жанр: фэнтези, драма
Продолжительность: 01:38:00
Перевод: Профессиональный (многоголосый закадровый) + Оригинальная звуковая дорожка
Субтитры: Русские

Режиссёр: Сэм Гарбарски / Sam Garbarski
Сценарист: Дзиро Танигучи, Филипп Бласбан, Сэм Гарбарски, ...
Продюсер: Карл Баумгартнер, Диана Элбаум, Дэнис Фрейд, ..
Оператор: Жанна Лапуари
Композитор: Эйр, Жан-Бенуа Данкель, Николас Годин
В ролях: Паскаль Греггори, Джонатан Цассаи, Александра Мария Лара, Лео Легран, Лаура Мартин, Пьер-Луи Беллет, Таня Гарбарски, Луис Бьянчи
Описание: К пятидесяти годам у Томаса за спиной престижная работа, счет в банке, жена и дети. А впереди — серая и неинтересная жизнь. Однажды Томас по ошибке садится не на тот поезд и оказывается в городе своего детства. Именно здесь сорок лет назад случилась страшная трагедия, от которой мать так и не смогла оправиться. Чудесное превращение дает Томасу возможность вернуться в прошлое. Оказавшись в собственном теле в четырнадцатилетнем возрасте, но с опытом пятидесятилетней жизни, он вновь встречает первую школьную любовь, старых друзей, любимую сестру и верного пса. Встречает и отца, который пока еще не ушел из семьи. Возможно, весь смысл удивительного путешествия в том и состоит, чтобы предотвратить трагедию?..

ИзображениеИзображение

Качество: BDRip 720p
Формат: MKV
Видео кодек: AVC
Аудио кодек: DTS
Видео: 1280x692, AVC, 24 fps, 5 928 kbps
Аудио #1: Russian: DTS 5.1 / 48 kHz / 1152 kbps [Профессиональный (многоголосый закадровый)]
Аудио #2: French: DTS 5.1 / 48 kHz / 1152 kbps [Оригинальная звуковая дорожка]
Субтитры: Русские

MediaInfo

Cкрытый текст
General
UniqueID : 247570337982646670581335370437022647715 (0xBA40500ED46DC4489B885292B99B05A3)
Complete name : E:\Films\Daleko.Po.Sosedstvu.2010.Blu-ray.720p.mkv
Format : Matroska
File size : 5.94 GiB
Duration : 1h 41mn
Overall bit rate : 8 399 Kbps
Encoded date : UTC 2011-09-05 15:04:55
Writing application : mkvmerge v4.9.1 ('Ich will') сборка от Jul 11 2011 23:53:15
Writing library : libebml v1.2.1 + libmatroska v1.1.1

Video
ID : 1
Format : AVC
Format/Info : Advanced Video Codec
Format profile : High@L4.1
Format settings, CABAC : Yes
Format settings, ReFrames : 9 frames
Codec ID : V_MPEG4/ISO/AVC
Duration : 1h 41mn
Bit rate : 5 928 Kbps
Width : 1 280 pixels
Height : 692 pixels
Display aspect ratio : 1.850
Frame rate : 24.000 fps
Color space : YUV
Chroma subsampling : 4:2:0
Bit depth : 8 bits
Scan type : Progressive
Bits/(Pixel*Frame) : 0.279
Stream size : 4.19 GiB (71%)
Title : Daleko.Po.Sosedstvu.2010
Writing library : x264 core 116 r2074 2641b9e
Encoding settings : cabac=1 / ref=9 / deblock=1:-3:-2 / analyse=0x3:0x113 / me=umh / subme=11 / psy=1 / psy_rd=1.00:0.00 / mixed_ref=1 / me_range=32 / chroma_me=1 / trellis=2 / 8x8dct=1 / cqm=0 / deadzone=21,11 / fast_pskip=0 / chroma_qp_offset=-2 / threads=3 / sliced_threads=0 / nr=0 / decimate=0 / interlaced=0 / bluray_compat=0 / constrained_intra=0 / bframes=6 / b_pyramid=2 / b_adapt=2 / b_bias=0 / direct=3 / weightb=1 / open_gop=0 / weightp=2 / keyint=250 / keyint_min=24 / scenecut=40 / intra_refresh=0 / rc_lookahead=40 / rc=crf / mbtree=0 / crf=18.0 / qcomp=0.60 / qpmin=0 / qpmax=69 / qpstep=4 / vbv_maxrate=50000 / vbv_bufsize=50000 / crf_max=0.0 / nal_hrd=none / ip_ratio=1.40 / pb_ratio=1.30 / aq=1:1.00
Language : French
Matrix coefficients : BT.709-5, BT.1361, IEC 61966-2-4 709, SMPTE RP177

Audio #1
ID : 2
Format : DTS
Format/Info : Digital Theater Systems
Codec ID : A_DTS
Duration : 1h 41mn
Bit rate mode : Constant
Bit rate : 1 152 Kbps
Channel(s) : 6 channels
Channel positions : Front: L C R, Side: L R, LFE
Sampling rate : 48.0 KHz
Bit depth : 24 bits
Compression mode : Lossy
Stream size : 834 MiB (14%)
Title : DTS @ 5.1 1 152 Kbps - (многоголосый закадровый)
Language : Russian

Audio #2
ID : 3
Format : DTS
Format/Info : Digital Theater Systems
Codec ID : A_DTS
Duration : 1h 41mn
Bit rate mode : Constant
Bit rate : 1 152 Kbps
Channel(s) : 6 channels
Channel positions : Front: L C R, Side: L R, LFE
Sampling rate : 48.0 KHz
Bit depth : 24 bits
Compression mode : Lossy
Stream size : 834 MiB (14%)
Title : DTS @ 5.1 1 152 Kbps - (Оригинал)
Language : French

Text
ID : 4
Format : UTF-8
Codec ID : S_TEXT/UTF8
Codec ID/Info : UTF-8 Plain Text
Language : Russian

Menu
00:00:00.000 : :00:00:00.000
00:05:25.583 : :00:05:25.583
00:10:19.750 : :00:10:19.750
00:14:01.917 : :00:14:01.917
00:17:22.667 : :00:17:22.667
00:21:26.542 : :00:21:26.542
00:26:50.958 : :00:26:50.958
00:31:57.625 : :00:31:57.625
00:36:24.208 : :00:36:24.208
00:41:41.292 : :00:41:41.292
00:47:23.208 : :00:47:23.208
00:53:29.458 : :00:53:29.458
00:58:43.542 : :00:58:43.542
01:02:40.083 : :01:02:40.083
01:10:16.958 : :01:10:16.958
01:14:37.167 : :01:14:37.167
01:20:24.875 : :01:20:24.875
01:26:18.708 : :01:26:18.708
Свернуть
Скриншоты
Изображение
Изображение
Изображение
Изображение
Изображение
Изображение
Свернуть


Последний раз редактировалось Shurok 2011-09-06 18:26, всего редактировалось 2 раз(а).
Не в сети
Профиль  
 Добавлено: 2011-09-06 18:19 (спустя 5 минут)
Аватара пользователя
Стаж: 8 лет 3 месяца
Возраст: 43
Сообщений: 3290
Спасибок: 21012
Лайков: 3
Shurok
перезалейте пожалуйста скриншоты и постер на рекомендованные хостинги, а то ваш очень медленно работает :)
Скриншоты необходимо залить на один из рекомендованных фотохостингов, согласно инструкции Куда и как залить скриншоты (это связано с нестабильностью и непредсказуемой работой всех остальных), основные из рекомендованных - http://www.radikal.ru, immage.de, keep4u, imageshack.us.
_________________
Изображение
Не в сети
Профиль  
 Добавлено: 2011-09-06 19:04 (спустя 44 минуты)
Кинокомментатор
Аватара пользователя
Стаж: 9 лет 1 месяц
Сообщений: 1332
Лайков: 54
а тут будет дубляж али нет?)
_________________
Я ВКонтакте
Не в сети
Профиль  
 Добавлено: 2011-09-06 20:00 (спустя 55 минут)
Аватара пользователя
Стаж: 8 лет 10 месяцев
Сообщений: 26
Спасибок: 172
Bronks
Нет, это лицензия
Не в сети
Профиль  
 Добавлено: 2011-09-06 20:41 (спустя 41 минута)
Аватара пользователя
Стаж: 9 лет
Сообщений: 21
Спасибок: 821
Не пойму написанно кодек AC3....а ниже DTS. Так какой на самом деле?
Не в сети
Профиль  
 Добавлено: 2011-09-06 20:50 (спустя 8 минут)
Аватара пользователя
Стаж: 8 лет 3 месяца
Возраст: 43
Сообщений: 3290
Спасибок: 21012
Лайков: 3

Tosh:

Не пойму написанно кодек AC3....а ниже DTS. Так какой на самом деле?
Судя по медиа инфо - DTS. Спасибо за внимательность, исправил :)
_________________
Изображение
Не в сети
Профиль  
 Добавлено: 2011-09-07 15:11 (спустя 18 часов)
Аватара пользователя
Стаж: 9 лет
Сообщений: 545
Спасибок: 339
а когда 1080p?
_________________
Smack - Вместе нам не быть (Mixtape vol. 3) [2013]
Smack - Нарисую (Mixtape vol. 2) [2011]
Не в сети
Профиль  
 Добавлено: 2011-09-07 20:48 (спустя 5 часов)
Кинокомментатор
Аватара пользователя
Стаж: 9 лет 1 месяц
Сообщений: 1332
Лайков: 54
кино скучноватое, но очень сильное! Такое прям, европейское! Что б подумать!) После просмотра мне захотелось постоянных отношений))) и попить вина и поболтать с мамой в кафе! а то как чужие люди...
кино заставляет думать, заставляет жить а не проживать...
ну 7 то точно!)
_________________
Я ВКонтакте
Не в сети
Профиль  
Начать новую темуОтветить на тему  [ Сообщений: 8 ] 
Вы не можете начинать темы
Вы не можете отвечать на сообщения
Вы не можете редактировать свои сообщения
Вы не можете удалять свои сообщения