Правила форума

  • В этом разделе создание новых тем Запрещено.
  • Для создания новых тем пользуйтесь Корневым разделом DVD и HD фильмы.
Начать новую темуОтветить на тему  [ 1 сообщение ] 
Торрент файл
Размер: 8.93 GB • Зарегистрирован: 5 лет 2 месяца • Статус: Проверено
Скачан: 22 раза • Желающих скачать: 0 • Поблагодарили: 7 раз
 Раздают: 0  |  0 KB/s  ]   Качают: 0  |  0 KB/s  ] 
 Полного источника не было 3 года 2 месяца 
Сообщения
 Добавлено: 2011-09-08 20:37
Модератор релиз-группы
Аватара пользователя
Стаж: 9 лет 1 месяц
Возраст: 97
Сообщений: 11659
Спасибок: 6532
Лайков: 269
Далеко по соседству / Quartier lointain
«Волшебное путешествие во времени»

Изображение


Год выпуска: 2010
Страна: Германия, Франция, Бельгия, Люксембург
Жанр: фэнтези, драма
Продолжительность: 01:38:00
Перевод: Профессиональный (многоголосый закадровый)
Оригинальная звуковая дорожка
Субтитры: Русские

Режиссёр: Сэм Гарбарски / Sam Garbarski
Сценарист: Дзиро Танигучи, Филипп Бласбан, Сэм Гарбарски, ...
Продюсер: Карл Баумгартнер, Диана Элбаум, Дэнис Фрейд, ..
Оператор: Жанна Лапуари
Композитор: Эйр, Жан-Бенуа Данкель, Николас Годин
В ролях: Паскаль Греггори, Джонатан Цассаи, Александра Мария Лара, Лео Легран, Лаура Мартин, Пьер-Луи Беллет, Таня Гарбарски, Луис Бьянчи
Описание: К пятидесяти годам у Томаса за спиной престижная работа, счет в банке, жена и дети. А впереди — серая и неинтересная жизнь. Однажды Томас по ошибке садится не на тот поезд и оказывается в городе своего детства. Именно здесь сорок лет назад случилась страшная трагедия, от которой мать так и не смогла оправиться. Чудесное превращение дает Томасу возможность вернуться в прошлое. Оказавшись в собственном теле в четырнадцатилетнем возрасте, но с опытом пятидесятилетней жизни, он вновь встречает первую школьную любовь, старых друзей, любимую сестру и верного пса. Встречает и отца, который пока еще не ушел из семьи. Возможно, весь смысл удивительного путешествия в том и состоит, чтобы предотвратить трагедию?..

Изображение
Качество: BDRip
Формат: MKV
Видео кодек: MPEG-4(AVC)
Аудио кодек: AC3 ,DTS
Видео: MPEG-4 AVC, 9438 Кбит/с, 1920x1040, 24.000 fps
Аудио #1:Russian: AC3 5.1/ 48kHz/ 640 Кбит/с [Профессиональный (многоголосый закадровый)]
Аудио #2: Russian: DTS 5.1 / 48 kHz / 1 152 Kbps [Профессиональный (многоголосый закадровый)]
Аудио #3: French: DTS 5.1 / 48 kHz / 1 152 kbps [Оригинальная звуковая дорожка]
Субтитры: Русские

Скриншоты
Изображение

Изображение

Изображение

Изображение

Изображение

Свернуть

Mi
Format : Matroska
Format version : Version 2
File size : 8.93 GiB
Duration : 1h 41mn
Overall bit rate : 12.6 Mbps
Encoded date : UTC 2011-09-07 04:46:19
Writing application : mkvmerge v4.9.1 ('Ich will') built on Jul 11 2011 23:53:15
Writing library : libebml v1.2.1 + libmatroska v1.1.1

Video
ID : 1
Format : AVC
Format/Info : Advanced Video Codec
Format profile : High@L4.1
Format settings, CABAC : Yes
Format settings, ReFrames : 4 frames
Format settings, GOP : M=4, N=33
Codec ID : V_MPEG4/ISO/AVC
Duration : 1h 41mn
Bit rate : 9 438 Kbps
Width : 1 920 pixels
Height : 1 040 pixels
Display aspect ratio : 16:9
Frame rate : 24.000 fps
Standard : PAL
Color space : YUV
Chroma subsampling : 4:2:0
Bit depth : 8 bits
Scan type : Progressive
Bits/(Pixel*Frame) : 0.197
Stream size : 6.67 GiB (75%)
Language : French
Color primaries : BT.709-5, BT.1361, IEC 61966-2-4, SMPTE RP177
Transfer characteristics : BT.709-5, BT.1361
Matrix coefficients : BT.709-5, BT.1361, IEC 61966-2-4 709, SMPTE RP177

Audio #1
ID : 2
Format : AC-3
Format/Info : Audio Coding 3
Mode extension : CM (complete main)
Codec ID : A_AC3
Duration : 1h 41mn
Bit rate mode : Constant
Bit rate : 640 Kbps
Channel(s) : 6 channels
Channel positions : Front: L C R, Side: L R, LFE
Sampling rate : 48.0 KHz
Bit depth : 16 bits
Compression mode : Lossy
Stream size : 463 MiB (5%)
Language : Russian

Audio #2
ID : 3
Format : DTS
Format/Info : Digital Theater Systems
Codec ID : A_DTS
Duration : 1h 41mn
Bit rate mode : Constant
Bit rate : 1 152 Kbps
Channel(s) : 6 channels
Channel positions : Front: L C R, Side: L R, LFE
Sampling rate : 48.0 KHz
Bit depth : 16 bits
Compression mode : Lossy
Stream size : 834 MiB (9%)
Language : Russian

Audio #3
ID : 4
Format : DTS
Format/Info : Digital Theater Systems
Codec ID : A_DTS
Duration : 1h 41mn
Bit rate mode : Constant
Bit rate : 1 152 Kbps
Channel(s) : 6 channels
Channel positions : Front: L C R, Side: L R, LFE
Sampling rate : 48.0 KHz
Bit depth : 16 bits
Compression mode : Lossy
Stream size : 834 MiB (9%)
Language : French

Text
ID : 5
Format : PGS
Codec ID : S_HDMV/PGS
Codec ID/Info : The same subtitle format used on BDs/HD-DVDs
Language : Russian

Свернуть
_________________
Изображение
Не в сети
Профиль  
Начать новую темуОтветить на тему  [ 1 сообщение ] 
Вы не можете начинать темы
Вы не можете отвечать на сообщения
Вы не можете редактировать свои сообщения
Вы не можете удалять свои сообщения