Правила форума

  • В этом разделе создание новых тем Запрещено.
  • Для создания новых тем пользуйтесь Корневым разделом DVD и HD фильмы.
Начать новую темуОтветить на тему  [ Сообщений: 5 ] 
Торрент файл
Размер: 5.78 GB • Зарегистрирован: 3 года 11 месяцев • Статус: Проверено
Скачан: 52 раза • Желающих скачать: 0 • Поблагодарили: 13 раз
 Раздают: 0  |  0 KB/s  ]   Качают: 0  |  0 KB/s  ] 
 Полного источника не было 2 года 1 месяц 
Сообщения
 Добавлено: 2012-12-22 20:30
Модератор релиз-группы
Аватара пользователя
Стаж: 6 лет 5 месяцев
Возраст: 25
Сообщений: 622
Спасибок: 10257
Лайков: 7
Давай, до свидания! / Лола против / Lola Versus

Изображение


Год выпуска: 2012
Страна: США
Слоган: «Против секса, любви и всего мира»
Жанр: комедия
Продолжительность: 01:26:59
Перевод: Профессиональный (многоголосый закадровый)

Режиссёр: Дэрил Вейн
В ролях: Грета Гервиг (Lola), Юэль Киннаман (Luke), Зои Листер Джонс (Alice), Хамиш Линклэйтер (Henry), Билл Пуллман (Lenny), Дебра Уингер (Robin), Мария Дицциа (Woman Subletter), Джонатан Сейл (Fantasy Bar Guy), Эбон Мосс-Бакрак (Nick), Адриан Ленокс (Professor), Рэй Яничелли (Man at Restaurant), Кэтрин Кейтс (Woman at Restaurant)
Описание: Очаровательная писательница Лола счастлива с женихом Люком. Свадьба - совершенно естественный следующий шаг в их длительных отношениях. Во всяком случае, так кажется невесте. А у Люка совершенно иное мнение на сей счет, и он решился озвучить его накануне свадьбы. Теперь, девушка разочарована в любви, в сексе, в самой жизни! Но за внешностью заплаканной неудачницы скрывается «стойкий оловянный солдатик», который всем еще покажет «кузькину мать».
Изображение 4.6/10 (528 votes)
Изображение 5.8/10 (2,135 votes)
Раздача группы: Изображение
Качество: BDRip 720p
Контейнер: MKV

Видео: H.264/AVC, 1280x694 (16:9), 23.976 fps, ~8500 kbps
Аудио №1: Русский: AC3 5.1, 48 kHz, ~384 kbps
Аудио №2: Английский: AC3 5.1, 48 kHz, ~640 kbps
Субтитры: английские (SDH), испанские (Full)
Формат субтитров: softsub (SRT)
Навигация по главам: есть
Media Info
General
Complete name : Lola.Versus.2012.720p.BluRay.Rus.Eng.Subs.mkv
Format : Matroska
Format version : Version 4 / Version 2
File size : 5.78 GiB
Duration : 1h 26mn
Overall bit rate : 9 514 Kbps
Movie name : Lola Versus (2012)
Encoded date : UTC 2010-02-22 21:41:31
Writing application : mkvmerge v5.9.0 ('On The Loose') built on Dec 9 2012 15:37:01
Writing library : libebml v1.3.0 + libmatroska v1.4.0

Video
ID : 1
Format : AVC
Format/Info : Advanced Video Codec
Format profile : High@L4.1
Format settings, CABAC : Yes
Format settings, ReFrames : 9 frames
Codec ID : V_MPEG4/ISO/AVC
Duration : 1h 26mn
Bit rate : 8 500 Kbps
Width : 1 280 pixels
Height : 694 pixels
Display aspect ratio : 16:9
Frame rate : 23.976 fps
Color space : YUV
Chroma subsampling : 4:2:0
Bit depth : 8 bits
Scan type : Progressive
Bits/(Pixel*Frame) : 0.399
Stream size : 5.04 GiB (87%)
Title : -EbP-
Writing library : x264 core 125 r2208 d9d2288
Encoding settings : cabac=1 / ref=9 / deblock=1:-3:-3 / analyse=0x3:0x113 / me=tesa / subme=11 / psy=1 / psy_rd=1.05:0.00 / mixed_ref=1 / me_range=16 / chroma_me=1 / trellis=2 / 8x8dct=1 / cqm=0 / deadzone=21,11 / fast_pskip=0 / chroma_qp_offset=-2 / threads=12 / lookahead_threads=2 / sliced_threads=0 / nr=0 / decimate=0 / interlaced=0 / bluray_compat=0 / constrained_intra=0 / bframes=11 / b_pyramid=2 / b_adapt=2 / b_bias=0 / direct=3 / weightb=1 / open_gop=0 / weightp=2 / keyint=250 / keyint_min=23 / scenecut=40 / intra_refresh=0 / rc=2pass / mbtree=0 / bitrate=8500 / ratetol=1.0 / qcomp=0.60 / qpmin=0 / qpmax=69 / qpstep=4 / cplxblur=20.0 / qblur=0.5 / ip_ratio=1.40 / pb_ratio=1.30 / aq=1:0.60
Language : English
Default : Yes
Forced : No

Audio #1
ID : 2
Format : AC-3
Format/Info : Audio Coding 3
Mode extension : CM (complete main)
Codec ID : A_AC3
Duration : 1h 26mn
Bit rate mode : Constant
Bit rate : 384 Kbps
Channel(s) : 6 channels
Channel positions : Front: L C R, Side: L R, LFE
Sampling rate : 48.0 KHz
Bit depth : 16 bits
Compression mode : Lossy
Stream size : 239 MiB (4%)
Title : MVO @ DD5.1 384 kbps @ R5
Language : Russian
Default : Yes
Forced : No

Audio #2
ID : 3
Format : AC-3
Format/Info : Audio Coding 3
Mode extension : CM (complete main)
Codec ID : A_AC3
Duration : 1h 26mn
Bit rate mode : Constant
Bit rate : 640 Kbps
Channel(s) : 6 channels
Channel positions : Front: L C R, Side: L R, LFE
Sampling rate : 48.0 KHz
Bit depth : 16 bits
Compression mode : Lossy
Stream size : 398 MiB (7%)
Title : Original @ DD5.1 640 kbps
Language : English
Default : No
Forced : No

Text #1
ID : 4
Format : UTF-8
Codec ID : S_TEXT/UTF8
Codec ID/Info : UTF-8 Plain Text
Title : SDH
Language : English
Default : No
Forced : No

Text #2
ID : 5
Format : UTF-8
Codec ID : S_TEXT/UTF8
Codec ID/Info : UTF-8 Plain Text
Title : Full
Language : Spanish
Default : No
Forced : No

Menu
00:00:00.000 : en:00:00:00.000
00:04:03.493 : en:00:04:03.493
00:06:46.239 : en:00:06:46.239
00:09:14.304 : en:00:09:14.304
00:13:24.012 : en:00:13:24.012
00:16:26.235 : en:00:16:26.235
00:19:43.349 : en:00:19:43.349
00:24:39.269 : en:00:24:39.269
00:30:11.727 : en:00:30:11.727
00:33:59.162 : en:00:33:59.162
00:39:33.288 : en:00:39:33.288
00:42:24.083 : en:00:42:24.083
00:47:23.049 : en:00:47:23.049
00:50:14.720 : en:00:50:14.720
00:54:13.542 : en:00:54:13.542
00:57:12.763 : en:00:57:12.763
01:00:23.370 : en:01:00:23.370
01:05:18.248 : en:01:05:18.248
01:07:46.479 : en:01:07:46.479
01:10:38.568 : en:01:10:38.568
01:12:07.740 : en:01:12:07.740
01:15:03.165 : en:01:15:03.165
01:17:47.788 : en:01:17:47.788
01:22:26.316 : en:01:22:26.316
Свернуть

Скриншоты
Изображение
Изображение
Изображение
Изображение
Свернуть
_________________
Изображение


Последний раз редактировалось Slovetskii 2012-12-31 09:35, всего редактировалось 1 раз.
Не в сети
Профиль  
 Добавлено: 2012-12-22 21:04 (спустя 34 минуты)
Стаж: 7 лет 9 месяцев
Сообщений: 34
Лайков: 1
ВОТ ПРИ ЧЕМ ТУТ "Давай, до свидания"???? Как задолбали наши прокатчики попытками выжать лишний рублик из раскрученных фразочек. Потом замучаешься сопоставлять русское и английское названия. По-моему, эффект обратный - все думают, что кино про армян и в кино не идут )))
Не в сети
Профиль  
 Добавлено: 2013-01-05 19:08 (спустя 13 дней)
Аватара пользователя
Стаж: 8 лет 9 месяцев
Сообщений: 1170
Спасибок: 1294
Лайков: 7
да, названия хуже не придумаешь
Не в сети
Профиль  
 Добавлено: 2013-01-08 21:00 (спустя 3 дня)
Аватара пользователя
Стаж: 7 лет 5 месяцев
Сообщений: 18
Спасибок: 76
bossboss

ээээ, то чито, давай , до свидаанииияя...
:-D
Не в сети
Профиль  
 Добавлено: 2013-01-12 19:52 (спустя 3 дня)
Стаж: 3 года 11 месяцев
Сообщений: 101
СПАСИБО!
Не в сети
Профиль  
Начать новую темуОтветить на тему  [ Сообщений: 5 ] 
Вы не можете начинать темы
Вы не можете отвечать на сообщения
Вы не можете редактировать свои сообщения
Вы не можете удалять свои сообщения