Правила форума

  • В этом разделе создание новых тем Запрещено.
  • Для создания новых тем пользуйтесь Корневым разделом DVD и HD фильмы.
Начать новую темуОтветить на тему  [ Сообщений: 15 ] 
Торрент файл
Размер: 8.38 GB • Зарегистрирован: 7 месяцев • Статус: Проверено
Скачан: 1309 раз • Желающих скачать: 0 • Поблагодарили: 209 раз
 Раздают: 10  |  0 KB/s  ]   Качают: 0  |  0 KB/s  ] 
Сообщения
 Добавлено: 2016-04-26 08:56
RG-ELEKTRO
Аватара пользователя
Стаж: 2 года 3 месяца
Сообщений: 7928
Спасибок: 53785
Лайков: 3304
Дэдпул / Deadpool

Изображение

Изображение

Год выпуска: 2016
Страна: США, Канада
Жанр: фантастика, боевик, комедия, приключения
Продолжительность: 01:48:41
Перевод: Профессиональный (дублированный) [iTunes]

Режиссёр: Тим Миллер
В ролях: Райан Рейнольдс, Морена Баккарин, Эд Скрейн, ТиДжей Миллер, Джина Карано, Брианна Хилдебранд, Стефан Капичич, Лесли Уггэмс, Джед Риис, Каран Сони
Описание: Уэйд Уилсон — наёмник. Будучи побочным продуктом программы вооружённых сил под названием «Оружие X», Уилсон приобрёл невероятную силу, проворство и способность к исцелению. Но страшной ценой: его клеточная структура постоянно меняется, а здравомыслие сомнительно. Всё, чего Уилсон хочет, — это держаться на плаву в социальной выгребной яме. Но течение в ней слишком быстрое.

Изображение Изображение

Качество: BDRip 1080p
Формат: MKV
Видео кодек: MPEG-4 AVC
Аудио кодек: AC3
Видео: MPEG-4 AVC, 1920x808, 8624 kбит/сек, 23.976fps
Аудио #1: AC3, 48.0 KHz, 6 ch, 384 Kbps, CBR [Профессиональный (дублированный) [iTunes]
Аудио #2: AC3, 48.0 KHz, 2 ch, 192 Kbps, CBR (English) - оригинал
Аудио #3: Русский (АС3, 2 ch, 192 Кбит/с) - Гаевский
Аудио #4: Русский (АС3, 2 ch, 192 Кбит/с) - Zamez цензурный
Аудио #5: Русский (АС3, 2 ch, 192 Кбит/с) - Zamez ненорматив
Субтитры: Русские, английские

"MI"
Общее
Уникальный идентификатор : 197744475560426696290879960729038153630 (0x94C4335FE38AF71485669FC5FAE4E79E)
Полное имя : C:TempDeadpool.2016.BDRip.1080p.mkv
Формат : Matroska
Версия формата : Version 2
Размер файла : 8,38 Гбайт
Продолжительность : 1 ч. 48 м.
Общий поток : 11,1 Мбит/сек
Дата кодирования : UTC 2016-04-26 21:16:37
Программа кодирования : mkvmerge v4.0.0 ('The Stars were mine') сборка от Jun 6 2010 16:18:42
Библиотека кодирования : libebml v1.0.0 + libmatroska v1.0.0

Видео
Идентификатор : 1
Формат : AVC
Формат/Информация : Advanced Video Codec
Профиль формата : High@L4.1
Параметр CABAC формата : Да
Параметр ReFrames формата : 5 кадров
Идентификатор кодека : V_MPEG4/ISO/AVC
Продолжительность : 1 ч. 48 м.
Битрейт : 8624 Кбит/сек
Ширина : 1920 пикселей
Высота : 808 пикселей
Соотношение сторон : 2,40:1
Режим частоты кадров : Постоянный
Частота кадров : 23,976 кадра/сек
Цветовое пространство : YUV
Субдискретизация насыщенности : 4:2:0
Битовая глубина : 8 бит
Тип развёртки : Прогрессивная
Бит/(Пиксели*Кадры) : 0.232
Размер потока : 6,35 Гбайт (76%)
Библиотека кодирования : x264 core 148 r2692 64f4e24
Настройки программы : cabac=1 / ref=5 / deblock=1:0:0 / analyse=0x3:0x133 / me=umh / subme=7 / psy=1 / psy_rd=1.00:0.00 / mixed_ref=1 / me_range=16 / chroma_me=1 / trellis=1 / 8x8dct=1 / cqm=0 / deadzone=21,11 / fast_pskip=0 / chroma_qp_offset=-2 / threads=18 / lookahead_threads=3 / sliced_threads=0 / nr=0 / decimate=1 / interlaced=0 / bluray_compat=0 / constrained_intra=0 / bframes=3 / b_pyramid=2 / b_adapt=1 / b_bias=0 / direct=1 / weightb=1 / open_gop=0 / weightp=2 / keyint=250 / keyint_min=23 / scenecut=40 / intra_refresh=0 / rc_lookahead=40 / rc=2pass / mbtree=1 / bitrate=8624 / ratetol=1.0 / qcomp=0.60 / qpmin=0 / qpmax=69 / qpstep=4 / cplxblur=20.0 / qblur=0.5 / ip_ratio=1.40 / aq=1:1.00
Язык : English
Default : Нет
Forced : Нет

Аудио #1
Идентификатор : 2
Формат : AC-3
Формат/Информация : Audio Coding 3
Расширение режима : CM (complete main)
Параметр Endianness формата : Big
Идентификатор кодека : A_AC3
Продолжительность : 1 ч. 48 м.
Вид битрейта : Постоянный
Битрейт : 384 Кбит/сек
Каналы : 6 каналов
Расположение каналов : Front: L C R, Side: L R, LFE
Частота : 48,0 КГц
Частота кадров : 31,250 кадров/сек (1536 spf)
Метод сжатия : С потерями
Размер потока : 297 Мбайт (3%)
Заголовок : DUB iTunes
Язык : Russian
Default : Да
Forced : Да

Аудио #2
Идентификатор : 3
Формат : AC-3
Формат/Информация : Audio Coding 3
Расширение режима : CM (complete main)
Параметр Endianness формата : Big
Идентификатор кодека : A_AC3
Продолжительность : 1 ч. 48 м.
Вид битрейта : Постоянный
Битрейт : 192 Кбит/сек
Каналы : 2 канала
Расположение каналов : Front: L R
Частота : 48,0 КГц
Частота кадров : 31,250 кадров/сек (1536 spf)
Метод сжатия : С потерями
Размер потока : 149 Мбайт (2%)
Заголовок : Гаевский
Язык : Russian
Default : Нет
Forced : Нет

Аудио #3
Идентификатор : 4
Формат : AC-3
Формат/Информация : Audio Coding 3
Расширение режима : CM (complete main)
Параметр Endianness формата : Big
Идентификатор кодека : A_AC3
Продолжительность : 1 ч. 48 м.
Вид битрейта : Постоянный
Битрейт : 192 Кбит/сек
Каналы : 2 канала
Расположение каналов : Front: L R
Частота : 48,0 КГц
Частота кадров : 31,250 кадров/сек (1536 spf)
Метод сжатия : С потерями
Размер потока : 149 Мбайт (2%)
Заголовок : Zamez ценз
Язык : Russian
Default : Нет
Forced : Нет

Аудио #4
Идентификатор : 5
Формат : AC-3
Формат/Информация : Audio Coding 3
Расширение режима : CM (complete main)
Параметр Endianness формата : Big
Идентификатор кодека : A_AC3
Продолжительность : 1 ч. 48 м.
Вид битрейта : Постоянный
Битрейт : 192 Кбит/сек
Каналы : 2 канала
Расположение каналов : Front: L R
Частота : 48,0 КГц
Частота кадров : 31,250 кадров/сек (1536 spf)
Метод сжатия : С потерями
Размер потока : 149 Мбайт (2%)
Заголовок : Zamez ненорматив
Язык : Russian
Default : Нет
Forced : Нет

Аудио #5
Идентификатор : 8
Формат : DTS
Формат/Информация : Digital Theater Systems
Профиль формата : ES Matrix / Core
Режим : 16
Параметр Endianness формата : Big
Идентификатор кодека : A_DTS
Продолжительность : 1 ч. 48 м.
Вид битрейта : Постоянный
Битрейт : 1509 Кбит/сек
Каналы : 7 каналов / 6 каналов
Расположение каналов : Front: L C R, Side: L R, Back: C, LFE / Front: L C R, Side: L R, LFE
Частота : 48,0 КГц
Частота кадров : 93,750 кадра/сек (512 spf)
Битовая глубина : 24 бит
Метод сжатия : С потерями
Задержка видео : 11 мс.
Размер потока : 1,14 Гбайт (14%)
Язык : English
Default : Нет
Forced : Нет

Текст #1
Идентификатор : 6
Формат : UTF-8
Идентификатор кодека : S_TEXT/UTF8
Идентификатор кодека/Информация : UTF-8 Plain Text
Заголовок : Full
Язык : Russian
Default : Нет
Forced : Нет

Текст #2
Идентификатор : 7
Формат : UTF-8
Идентификатор кодека : S_TEXT/UTF8
Идентификатор кодека/Информация : UTF-8 Plain Text
Заголовок : Full
Язык : English
Default : Нет
Forced : Нет

Меню
00:00:00.000 : en:00:00:00.000
00:03:04.726 : en:00:03:04.726
00:05:53.019 : en:00:05:53.019
00:09:30.820 : en:00:09:30.820
00:13:19.090 : en:00:13:19.090
00:16:48.716 : en:00:16:48.716
00:20:12.545 : en:00:20:12.545
00:22:06.408 : en:00:22:06.408
00:27:09.628 : en:00:27:09.628
00:31:58.959 : en:00:31:58.959
00:36:51.709 : en:00:36:51.709
00:41:06.172 : en:00:41:06.172
00:44:45.766 : en:00:44:45.766
00:46:56.605 : en:00:46:56.605
00:50:10.966 : en:00:50:10.966
00:53:18.028 : en:00:53:18.028
00:55:33.038 : en:00:55:33.038
00:59:07.753 : en:00:59:07.753
01:03:05.240 : en:01:03:05.240
01:07:06.439 : en:01:07:06.439
01:09:15.568 : en:01:09:15.568
01:12:29.720 : en:01:12:29.720
01:16:46.393 : en:01:16:46.393
01:20:43.714 : en:01:20:43.714
01:25:53.398 : en:01:25:53.398
01:31:03.792 : en:01:31:03.792
01:34:46.973 : en:01:34:46.973
01:39:52.737 : en:01:39:52.737
Свернуть

Скриншоты
Изображение
Изображение
Изображение
Свернуть
Изображение


Изображение Изображение
_________________
Не ищите меня в "ВКонтакте", в "Одноклассниках" меня нет - я на трекерах сижу!


Последний раз редактировалось Оля 88 2016-04-27 06:43, всего редактировалось 3 раз(а).
 Dagel™ нравится это.
Не в сети
Профиль  
 Добавлено: 2016-04-26 14:38 (спустя 5 часов)
Аватара пользователя
Стаж: 6 лет 4 месяца
Сообщений: 28
Спасибок: 215
Лайков: 1
Дэдпул / Deadpoo

это специально так написано? за релиз спасибо
 Ilmerish нравится это.
Не в сети
Профиль  
 Добавлено: 2016-04-27 06:44 (спустя 16 часов)
RG-ELEKTRO
Аватара пользователя
Стаж: 2 года 3 месяца
Сообщений: 7928
Спасибок: 53785
Лайков: 3304
Заменен на BDRip 1080p
_________________
Не ищите меня в "ВКонтакте", в "Одноклассниках" меня нет - я на трекерах сижу!
Не в сети
Профиль  
 Добавлено: 2016-04-28 11:01 (спустя 1 день 4 часа)
Стаж: 6 лет 7 месяцев
Сообщений: 45
Лайков: 6
плохое кино. У меня вызвало отвращение. Скучно, не интересно и туалетный юмор для быдла. Хорошо что не пошел в кинотеатр.
 Priest, yuriy34, enikvostokoff и ещё 1-му нравится это.
Не в сети
Профиль  
 Добавлено: 2016-04-28 20:25 (спустя 9 часов)
Аватара пользователя
Стаж: 8 лет
Сообщений: 1391
Спасибок: 39
Лайков: 64
pavelll
вот к дедушке легкого поведения твой комент бы подошел :a_g_a:
Не в сети
Профиль  
 Добавлено: 2016-04-29 11:04 (спустя 14 часов)
Стаж: 6 лет 7 месяцев
Сообщений: 45
Лайков: 6

ferguson:

pavelll
вот к дедушке легкого поведения твой комент бы подошел :a_g_a:

наверно, но не хочу разочаровываться в ДеНиро
Не в сети
Профиль  
 Добавлено: 2016-04-30 16:08 (спустя 1 день 5 часов)
Аватара пользователя
Стаж: 7 лет 5 месяцев
Сообщений: 18
Лайков: 3
Отличный фильмец, посмотрел с удовольствием
Не в сети
Профиль  
 Добавлено: 2016-05-05 03:08 (спустя 4 дня)
Стаж: 7 лет 5 месяцев
Сообщений: 103
Лайков: 4
херня какая то
 Priest и yuriy34 нравится это.
Не в сети
Профиль  
 Добавлено: 2016-05-12 23:04 (спустя 7 дней)
Стаж: 2 года 11 месяцев
Сообщений: 1
Лайков: 1
херня!
 yuriy34 нравится это.
Не в сети
Профиль  
 Добавлено: 2016-05-14 20:25 (спустя 1 день 21 час)
Dream Team
Аватара пользователя
Стаж: 8 лет 7 месяцев
Возраст: 31
Сообщений: 1379
Спасибок: 67
Лайков: 96
Эмм... А что в кино плохого-то? Нету марвелловского пафоса? Так ведь и герой такой - отвязный, строящий из себя идиота, с туалетным юмором (и что там ещё снобов с неоплаченными интеллектуальными понтами бесит?), разговорами со "зрителем" и проч. Я приблизительно такого кино и ждал - "It's My Own Story, Bitch!", шутки ниже пояса, удары холодным оружием по тому же месту. Низкий у меня вкус, да.
Наверное, те, кто ожидал какого-то мега-экшна с вырыванием молекул псионикой (или что там у Марвелла в стандартных комиксах..), не сильно в теме того, шо за зверь ентот Дэдпул.
А те, кто ждал "прям чтобы как в комиксе, чтоб труселя поверх трико!" и прочей аутентичности в очередной раз забыли, шо фильмы и комиксы у Марвелла - две большие разницы.

Вот давеча на "Баядерке" был - там прямо красота, золотого божка артист исполнил прекрасно. А вот всё первое действие - скучновато, не справился Лиепа, как мне кажется, с большим количеством "текста" при постановке.
Это я к тому, что тут снобизм - да. Балет, искусство, чо. А шоб о фильме про Дэдпула... Ну знаете...

Хорошее кино, весёлое и про ни про что. Юмор ниже пояса, так что не для "Пойдём на свидание в кино?" - испортите свидание (а если наоборот - кул - держите этого человека изо всех сил!), но петросянства нет совсем. Рейнольдс хорош. Так что приятного попкорна в домашних условиях!
(а за искусством - эт к Озону, пожалуйста, а если прям совсем-совсем - к Тарковскому, что-ли...)

А те, кто дочитал, ентот дурацкий пост до конца, большое вам спасибо за ангельское терпение!
_________________
когда меня съедят команчи / пускай я не понравлюсь им / пусть говорят они друг другу / а помнишь ели то го..но
(al cogol)
 GF0, -El-DiA-, Basil и ещё 1-му нравится это.
Не в сети
Профиль  
 Добавлено: 2016-05-31 23:41 (спустя 17 дней)
Стаж: 7 лет 8 месяцев
Сообщений: 9
Посмотрел и забыл
Не в сети
Профиль  
 Добавлено: 2016-06-01 00:30 (спустя 49 минут)
Стаж: 7 лет 7 месяцев
Сообщений: 196
Спасибок: 1
Лайков: 8
C*ка, зря ты коричневые штаны не надел)))
Не в сети
Профиль  
 Добавлено: 2016-06-01 00:31 (спустя 1 минута)
Стаж: 7 лет 7 месяцев
Сообщений: 196
Спасибок: 1
Лайков: 8

pavelll:

плохое кино. У меня вызвало отвращение. Скучно, не интересно и туалетный юмор для быдла. Хорошо что не пошел в кинотеатр.

Да ну не, "Дедушка легкого поведения" угарный фильмец) ДеНиро классно сыграл)
Не в сети
Профиль  
 Добавлено: 2016-06-14 10:12 (спустя 13 дней)
Стаж: 5 лет 8 месяцев
Сообщений: 5
Лайков: 2
Фильм про больного на всю голову подонка, психопата. Дегенеративная, постоянно плюющая желчным "юмором" сволочь. Главный герой полный шлак,отстой, го..о, и еще кучу подобных же слов. Детям до 16 и людям с расстроенной психикой смотреть не рекомендую. Рейтинг данного фильма отражает деградацию общества. Вот и Россия постепенно двигается в сторону морально деградировавшего запада... Да, сам я не святой, но еще пока не до такой степени морально деградировавший, чтоб писать по поводу данного фильма какие либо (хоть на сколечко) положительные отзывы.
Не в сети
Профиль  
 Добавлено: 2016-06-22 00:07 (спустя 7 дней)
Стаж: 7 лет 5 месяцев
Сообщений: 103
Лайков: 4
в фильме много туалетного юмора, я конечно люблю чернуху , но тут уж совсем для отсталых, простите!
Не в сети
Профиль  
Начать новую темуОтветить на тему  [ Сообщений: 15 ] 
Вы не можете начинать темы
Вы не можете отвечать на сообщения
Вы не можете редактировать свои сообщения
Вы не можете удалять свои сообщения