Правила форума

  • В этом разделе создание новых тем Запрещено.
  • Для создания новых тем пользуйтесь Корневым разделом DVD и HD фильмы.
Начать новую темуОтветить на тему  [ 1 сообщение ] 
Торрент файл
Размер: 7.76 GB • Зарегистрирован: 1 месяц 19 дней • Статус: Проверено
Скачан: 30 раз • Желающих скачать: 0 • Поблагодарили: 14 раз
 Раздают: 0  |  0 KB/s  ]   Качают: 0  |  0 KB/s  ] 
 Полного источника не было 18 дней 
Сообщения
 Добавлено: 2014-01-19 21:29
Аватара пользователя
Стаж: 4 года 5 месяцев
Сообщений: 14
Спасибок: 288
Лайков: 2
Дело№39 / Case 39

Изображение


Год выпуска: 2009
Страна: США, Канада (Пифагор)
Слоган: «Некоторые дела лучше не открывать»
Жанр: Ужасы, триллер
Продолжительность: 01:49:25
Перевод: Дублированный
Субтитры: Русские

Режиссёр: Кристиан Альварт
Сценарист: Рэй Райт
Продюсер: Стив Голин, Кевин Мишер, Лиза Брюс
Оператор: Хаген Богданский
Композитор: Михль Брич
В ролях: Рене Зеллвегер,Джоделль Ферланд, Иэн МакШейн, Керри О`Мэлли, Каллум Кит Ренни, Брэдли Купер, Адриан Лестер, Джорджия Крэйг, Синтия Стивенсон, Тиффани Найт и другие
Описание: Социальный работник Эмили Дженкинс, с идеалистическими завихрениями в голове, спасает десятилетнюю замученную родителями девочку Лилит Салливан. Через некоторое время выясняется, что ситуация в семье была диаметрально противоположной…
Рейтинг MPAA: Рейтинг R (Подростки до 17 лет допускаются на фильм только в сопровождении одного из родителей)
Мировая премьера: 13 августа 2009
Премьера в России: 3 сентября 2009
Бюджет: $27 000 000
Кассовые сборы: $29 263 118
Изображение 6.634 (25446)
Изображение 6.20 (43817)

Качество: BDRip 1080
Формат: MKV
Видео кодек: V_MPEG4/ISO/AVC
Аудио кодек: A_AC3
Видео: 1920х816, 8870 Кбит/сек, 23,976 кадра/сек, 0.236 bit/pixel
Аудио #1: AC3 5.1 48 kHz 640 kbps - Дублированный
Аудио #2:AC3 5.1 48 kHz 640 kbps - English
Субтитры: Русские
Скриншоты
Изображение
Изображение
Изображение
Изображение
Изображение
Изображение
Свернуть

Знаете ли Вы, что...
Имя «Лилит» в современном сатанизме означает «Чёрная Богиня, губительница зародышей Света». Лилит, по некоторым версиям, — первая жена Адама.
Съёмки фильма начались в Ванкувере 8 сентября 2006 года и продолжались до начала ноября.
«Дело N39» стало голливудским дебютом режиссёра Альварта.
Самой сложной на стадии пре-производства картины для создателей оказалась задача найти исполнительницу на роль антагониста Зеллвегер — маленькой девочки по имени Лилит. После продолжительных кастингов в Канаде выбор пал на Джоделль Ферланд.
В августе 2007 года в Лос-Анджелесе состоялись пересъёмки некоторых сцен, в том числе и финала картины. Участвовали Зеллвегер, Ферланд и МакШейн.
СПОЙЛЕРОШИБКА
Роль Лилит могла достаться Хлое Грейс Морец и Изабелль Фурман.
Свернуть

MediaInfo
Общее
Format : Matroska
Format version : Version 2
File size : 7.76 GiB
Duration : 1h 49mn
Overall bit rate : 10.1 Mbps
Movie name : Delo №39.(2009).BDRip.1080p.[denis100]
Encoded date : UTC 2014-03-21 10:00:41
Writing application : mkvmerge v5.8.0 ('No Sleep / Pillow') built on Sep 2 2012 15:37:04
Writing library : libebml v1.2.3 + libmatroska v1.3.0

Video
ID : 1
Format : AVC
Format/Info : Advanced Video Codec
Format profile : High@L4.1
Format settings, CABAC : Yes
Format settings, ReFrames : 5 frames
Codec ID : V_MPEG4/ISO/AVC
Duration : 1h 49mn
Bit rate : 8 870 Kbps
Width : 1 920 pixels
Height : 816 pixels
Display aspect ratio : 2.35:1
Frame rate mode : Constant
Frame rate : 23.976 fps
Color space : YUV
Chroma subsampling : 4:2:0
Bit depth : 8 bits
Scan type : Progressive
Bits/(Pixel*Frame) : 0.236
Stream size : 6.62 GiB (85%)
Title : Delo №39.(2009).BDRip.1080p.[denis100]
Writing library : x264 core 138 r2358 9e941d1
Encoding settings : cabac=1 / ref=5 / deblock=1:-3:-3 / analyse=0x3:0x133 / me=umh / subme=11 / psy=1 / psy_rd=1.00:0.10 / mixed_ref=1 / me_range=32 / chroma_me=1 / trellis=2 / 8x8dct=1 / cqm=0 / deadzone=21,11 / fast_pskip=0 / chroma_qp_offset=-3 / threads=6 / lookahead_threads=1 / sliced_threads=0 / nr=0 / decimate=1 / interlaced=0 / bluray_compat=0 / constrained_intra=0 / bframes=8 / b_pyramid=2 / b_adapt=2 / b_bias=0 / direct=3 / weightb=1 / open_gop=0 / weightp=2 / keyint=240 / keyint_min=23 / scenecut=40 / intra_refresh=0 / rc=2pass / mbtree=0 / bitrate=8870 / ratetol=1.0 / qcomp=0.60 / qpmin=0 / qpmax=69 / qpstep=4 / cplxblur=20.0 / qblur=0.5 / ip_ratio=1.40 / pb_ratio=1.30 / aq=1:0.90
Language : English
Default : Yes
Forced : No

Audio #1
ID : 2
Format : AC-3
Format/Info : Audio Coding 3
Mode extension : CM (complete main)
Format settings, Endianness : Big
Codec ID : A_AC3
Duration : 1h 49mn
Bit rate mode : Constant
Bit rate : 640 Kbps
Channel(s) : 6 channels
Channel positions : Front: L C R, Side: L R, LFE
Sampling rate : 48.0 KHz
Bit depth : 16 bits
Compression mode : Lossy
Stream size : 501 MiB (6%)
Title : Дублированный
Language : Russian
Default : Yes
Forced : No

Audio #2
ID : 3
Format : AC-3
Format/Info : Audio Coding 3
Mode extension : CM (complete main)
Format settings, Endianness : Big
Codec ID : A_AC3
Duration : 1h 49mn
Bit rate mode : Constant
Bit rate : 640 Kbps
Channel(s) : 6 channels
Channel positions : Front: L C R, Side: L R, LFE
Sampling rate : 48.0 KHz
Bit depth : 16 bits
Compression mode : Lossy
Stream size : 501 MiB (6%)
Title : English
Language : English
Default : No
Forced : No

Text
ID : 4
Format : UTF-8
Codec ID : S_TEXT/UTF8
Codec ID/Info : UTF-8 Plain Text
Title : Russian
Language : Russian
Default : No
Forced : No
Свернуть

Изображение
_________________
Изображение
Не в сети
Профиль  
Начать новую темуОтветить на тему  [ 1 сообщение ] 
Вы не можете начинать темы
Вы не можете отвечать на сообщения
Вы не можете редактировать свои сообщения
Вы не можете удалять свои сообщения