Правила форума

  • В этом разделе создание новых тем Запрещено.
  • Для создания новых тем пользуйтесь Корневым разделом DVD и HD фильмы.
Начать новую темуОтветить на тему  [ 1 сообщение ] 
Торрент файл
Размер: 4.37 GB • Зарегистрирован: 2 года 10 месяцев • Статус: Проверено
Скачан: 28 раз • Желающих скачать: 0 • Поблагодарили: 12 раз
 Раздают: 0  |  0 KB/s  ]   Качают: 0  |  0 KB/s  ] 
 Полного источника не было 1 год 5 месяцев 
Сообщения
 Добавлено: 2014-01-19 21:29
Аватара пользователя
Стаж: 4 года 1 месяц
Сообщений: 12
Спасибок: 268
Лайков: 2
Дело№39 / Case 39

Изображение


Год выпуска: 2009
Страна: США, Канада (Пифагор)
Слоган: «Некоторые дела лучше не открывать»
Жанр: Ужасы, триллер
Продолжительность: 01:49:25
Перевод: Профессиональный (многоголосый закадровый)
Субтитры: Русские, Английские

Режиссёр: Кристиан Альварт
Сценарист: Рэй Райт
Продюсер: Стив Голин, Кевин Мишер, Лиза Брюс
Оператор: Хаген Богданский
Композитор: Михль Брич
В ролях: Рене Зеллвегер,Джоделль Ферланд, Иэн МакШейн, Керри О`Мэлли, Каллум Кит Ренни, Брэдли Купер, Адриан Лестер, Джорджия Крэйг, Синтия Стивенсон, Тиффани Найт и другие
Описание: Социальный работник Эмили Дженкинс, с идеалистическими завихрениями в голове, спасает десятилетнюю замученную родителями девочку Лилит Салливан. Через некоторое время выясняется, что ситуация в семье была диаметрально противоположной…
Рейтинг MPAA: Рейтинг R (Подростки до 17 лет допускаются на фильм только в сопровождении одного из родителей)
Мировая премьера: 13 августа 2009
Премьера в России: 3 сентября 2009
Бюджет: $27 000 000
Кассовые сборы: $29 263 118
Изображение 6.634 (25446)
Изображение 6.20 (43817)

Качество: BDRip 1080
Формат: MKV
Видео кодек: V_MPEG4/ISO/AVC
Аудио кодек: A_AC3
Видео: 1920х816, 5264 Кбит/сек, 23,976 кадра/сек, 0.140 bit/pixel
Аудио #1: A_AC3, 448 Кбит/сек, 6 каналов [Профессиональный (многоголосый закадровый)]
Субтитры: Русские, Английские
Скриншоты
Изображение
Изображение
Изображение
Изображение
Изображение
Изображение
Свернуть

Знаете ли Вы, что...
Имя «Лилит» в современном сатанизме означает «Чёрная Богиня, губительница зародышей Света». Лилит, по некоторым версиям, — первая жена Адама.
Съёмки фильма начались в Ванкувере 8 сентября 2006 года и продолжались до начала ноября.
«Дело N39» стало голливудским дебютом режиссёра Альварта.
Самой сложной на стадии пре-производства картины для создателей оказалась задача найти исполнительницу на роль антагониста Зеллвегер — маленькой девочки по имени Лилит. После продолжительных кастингов в Канаде выбор пал на Джоделль Ферланд.
В августе 2007 года в Лос-Анджелесе состоялись пересъёмки некоторых сцен, в том числе и финала картины. Участвовали Зеллвегер, Ферланд и МакШейн.
СПОЙЛЕРОШИБКА
Роль Лилит могла достаться Хлое Грейс Морец и Изабелль Фурман.
Свернуть

MediaInfo
Общее
Формат : BDRip
Версия формата : Version 2
Размер файла : 4,37 Гбайт
Продолжительность : 1 ч. 49 м.
Общий поток : 5712 Кбит/сек
Название фильма : Case 39
Дата кодирования : UTC 2012-05-26 20:51:44
Программа кодирования : mkvmerge v5.5.0 ('Healer') built on Apr 6 2012 21:43:24
Библиотека кодирования : libebml v1.2.3 + libmatroska v1.3.0

Видео
Идентификатор : 1
Формат : AVC
Формат/Информация : Advanced Video Codec
Профиль формата : High@L4.1
Параметр CABAC формата : Да
Параметр ReFrames формата : 5 кадров
Идентификатор кодека : V_MPEG4/ISO/AVC
Продолжительность : 1 ч. 49 м.
Битрейт : 5264 Кбит/сек
Ширина : 1920 пикселей
Высота : 816 пикселей
Соотношение сторон : 2,35:1
Режим частоты кадров : Постоянный
Частота кадров : 23,976 кадра/сек
Цветовое пространство : YUV
Субдискретизация насыщенности : 4:2:0
Битовая глубина : 8 бит
Тип развёртки : Прогрессивная
Бит/(Пиксели*Кадры) : 0.140
Размер потока : 3,94 Гбайт (90%)
Библиотека кодирования : x264 core 124 r2197 69a0443
Язык : English
Default : Да
Forced : Нет

Аудио
Идентификатор : 2
Формат : AC-3
Формат/Информация : Audio Coding 3
Расширение режима : CM (complete main)
Параметр Endianness формата : Big
Идентификатор кодека : A_AC3
Продолжительность : 1 ч. 49 м.
Вид битрейта : Постоянный
Битрейт : 448 Кбит/сек
Каналы : 6 каналов
Расположение каналов : Front: L C R, Side: L R, LFE
Частота : 48,0 КГц
Битовая глубина : 16 бит
Метод сжатия : С потерями
Размер потока : 351 Мбайт (8%)
Заголовок : Дубляж
Язык : Russian
Default : Да
Forced : Нет

Текст #1
Идентификатор : 3
Формат : UTF-8
Идентификатор кодека : S_TEXT/UTF8
Идентификатор кодека/Информация : UTF-8 Plain Text
Язык : Russian
Default : Да
Forced : Нет

Текст #2
Идентификатор : 4
Формат : UTF-8
Идентификатор кодека : S_TEXT/UTF8
Идентификатор кодека/Информация : UTF-8 Plain Text
Язык : English
Default : Нет
Forced : Нет
Свернуть

Изображение
_________________
Изображение
Не в сети
Профиль  
Начать новую темуОтветить на тему  [ 1 сообщение ] 
Вы не можете начинать темы
Вы не можете отвечать на сообщения
Вы не можете редактировать свои сообщения
Вы не можете удалять свои сообщения