Правила форума

  • В этом разделе создание новых тем Запрещено.
  • Для создания новых тем пользуйтесь Корневым разделом DVD и HD фильмы.
Начать новую темуОтветить на тему  [ Сообщений: 4 ] 
Торрент файл
Размер: 5.77 GB • Зарегистрирован: 11 месяцев • Статус: T Временный релиз
Скачан: 37 раз • Желающих скачать: 0 • Поблагодарили: 6 раз
 Раздают: 0  |  0 KB/s  ]   Качают: 0  |  0 KB/s  ] 
 Полного источника не было 4 месяца 1 день 
Сообщения
 Добавлено: 2015-12-07 14:55
DVD Release Group
Аватара пользователя
Стаж: 7 лет 1 месяц
Сообщений: 3545
Спасибок: 246961
Лайков: 1018
Демоны Джун

June


Изображение


Год выпуска: 2015
Страна: США
Жанр: Ужасы, фантастика
Продолжительность: 01:23:30
Перевод: Профессиональный (полное дублирование) чистый звук
Режиссер: Л. Густаво Купер
В ролях: Кеннеди Брайс, Виктория Прэтт, Эдди Джемисон, Лэнс Э. Николс, Каспер Ван Дин, Эдди Миллер, Эйден Флауэрс, Рэйчел Уитман Гровс, Джульетт Бивен, Келли Линд
Описание: История девятилетней сироты, которая стала сосудом для сверхъестественного существа по имени Эйр. Эйр выходит наружу, когда Джун теряет над собой контроль, если другие дети дразнят, пугают или унижают её. Мечтавшая о семье Джун быстро привыкает к своим новым приемным родителям, Лили и Дэйву, но теперь ей предстоит открыть свое настоящее имя, чтобы победить своего внутреннего демона, спасти себя и свою новую семью, найти любовь и признание в этом хаотичном мире.
Изображение
Sample:
http://sendfile.su/1180881
Качество: BDRip 1080p
Формат: MKV
Видео кодек: H.264
Аудио кодек: AC3, DTS
Видео: 1920x804 23.98fps 7757kbps
Аудио:
Аудио Rus: AC3 48kHz 6ch 384Kbps
Аудио Eng: DTS 48kHz 6ch 1510Kbps
"MediaInfo"
Формат : Matroska
Версия формата : Version 4 / Version 2
Размер файла : 5,77 Гбайт
Продолжительность : 1 ч. 23 м.
Общий поток : 9846 Кбит/сек
Дата кодирования : UTC 2015-12-07 09:20:31
Программа кодирования : mkvmerge v8.6.1 ('Flying') 64bit
Библиотека кодирования : libebml v1.3.3 + libmatroska v1.4.4
DURATION : 01:23:30.635000000
NUMBER_OF_FRAMES : 469747
NUMBER_OF_BYTES : 945130964
_STATISTICS_WRITING_APP : mkvmerge v8.6.1 ('Flying') 64bit
_STATISTICS_WRITING_DATE_UTC : 2015-12-07 09:20:31
_STATISTICS_TAGS : BPS DURATION NUMBER_OF_FRAMES NUMBER_OF_BYTES

Видео
Идентификатор : 1
Формат : AVC
Формат/Информация : Advanced Video Codec
Профиль формата : High@L4.1
Параметр CABAC формата : Да
Параметр ReFrames формата : 5 кадров
Идентификатор кодека : V_MPEG4/ISO/AVC
Продолжительность : 1 ч. 23 м.
Битрейт : 7757 Кбит/сек
Ширина : 1920 пикселей
Высота : 804 пикселя
Соотношение сторон : 2,40:1
Режим частоты кадров : Постоянный
Частота кадров : 23,976 кадра/сек
Цветовое пространство : YUV
Субдискретизация насыщенности : 4:2:0
Битовая глубина : 8 бит
Тип развёртки : Прогрессивная
Бит/(Пиксели*Кадры) : 0.210
Размер потока : 4,55 Гбайт (79%)
Библиотека кодирования : x264 core 148 r2597 e86f3a1
Настройки программы : cabac=1 / ref=5 / deblock=1:-1:-1 / analyse=0x3:0x113 / me=hex / subme=9 / psy=1 / psy_rd=0.99:0.01 / mixed_ref=1 / me_range=16 / chroma_me=1 / trellis=2 / 8x8dct=1 / cqm=0 / deadzone=21,11 / fast_pskip=0 / chroma_qp_offset=-3 / threads=12 / lookahead_threads=1 / sliced_threads=0 / nr=0 / decimate=1 / interlaced=0 / bluray_compat=0 / constrained_intra=0 / bframes=3 / b_pyramid=2 / b_adapt=2 / b_bias=0 / direct=3 / weightb=1 / open_gop=0 / weightp=2 / keyint=240 / keyint_min=23 / scenecut=40 / intra_refresh=0 / rc_lookahead=40 / rc=crf / mbtree=1 / crf=18.0 / qcomp=0.60 / qpmin=0 / qpmax=69 / qpstep=4 / vbv_maxrate=62500 / vbv_bufsize=78125 / crf_max=0.0 / nal_hrd=none / filler=0 / ip_ratio=1.40 / aq=1:1.00
Язык : English
Default : Да
Forced : Нет
DURATION : 01:23:30.631000000
NUMBER_OF_FRAMES : 120135
NUMBER_OF_BYTES : 5009896504
_STATISTICS_WRITING_APP : mkvmerge v8.6.1 ('Flying') 64bit
_STATISTICS_WRITING_DATE_UTC : 2015-12-07 09:20:31
_STATISTICS_TAGS : BPS DURATION NUMBER_OF_FRAMES NUMBER_OF_BYTES

Аудио #1
Идентификатор : 2
Формат : AC-3
Формат/Информация : Audio Coding 3
Расширение режима : CM (complete main)
Параметр Endianness формата : Big
Идентификатор кодека : A_AC3
Продолжительность : 1 ч. 23 м.
Вид битрейта : Постоянный
Битрейт : 384 Кбит/сек
Каналы : 6 каналов
Расположение каналов : Front: L C R, Side: L R, LFE
Частота : 48,0 КГц
Битовая глубина : 16 бит
Метод сжатия : С потерями
Размер потока : 231 Мбайт (4%)
Язык : Russian
Default : Да
Forced : Нет

Аудио #2
Идентификатор : 3
Формат : DTS
Формат/Информация : Digital Theater Systems
Режим : 16
Параметр Endianness формата : Big
Идентификатор кодека : A_DTS
Продолжительность : 1 ч. 23 м.
Вид битрейта : Постоянный
Битрейт : 1509 Кбит/сек
Каналы : 6 каналов
Расположение каналов : Front: L C R, Side: L R, LFE
Частота : 48,0 КГц
Битовая глубина : 24 бит
Метод сжатия : С потерями
Размер потока : 906 Мбайт (15%)
Язык : English
Default : Нет
Forced : Нет

Текст
Идентификатор : 4
Формат : UTF-8
Идентификатор кодека : S_TEXT/UTF8
Идентификатор кодека/Информация : UTF-8 Plain Text
Язык : Russian
Default : Да
Forced : Да

Меню
00:00:00.000 : en:00:00:00.000
00:07:16.186 : en:00:07:16.186
00:14:53.768 : en:00:14:53.768
00:20:27.977 : en:00:20:27.977
00:28:27.247 : en:00:28:27.247
00:35:21.911 : en:00:35:21.911
00:41:37.704 : en:00:41:37.704
00:47:52.578 : en:00:47:52.578
00:54:59.171 : en:00:54:59.171
01:01:00.866 : en:01:01:00.866
01:08:57.592 : en:01:08:57.592
01:16:33.088 : en:01:16:33.088
Свернуть

"Скриншоты"
Изображение
Изображение
Изображение
Свернуть
В сети
Профиль  
 Добавлено: 2015-12-07 21:37 (спустя 6 часов)
Стаж: 7 лет 3 месяца
Возраст: 30
Сообщений: 13
редкостное г....вно!!
Не в сети
Профиль  
 Добавлено: 2015-12-09 00:43 (спустя 1 день 3 часа)
Аватара пользователя
Стаж: 6 лет 5 месяцев
Сообщений: 19949
Спасибок: 721
Лайков: 461
:ny_tik:
_________________
It was I'am ... :jn_pu_sk:
Медали и Ордена
ИзображениеИзображение
Свернуть
Не в сети
Профиль  
 Добавлено: 2015-12-09 04:45 (спустя 4 часа)
Аватара пользователя
Стаж: 6 лет 5 месяцев
Сообщений: 19949
Спасибок: 721
Лайков: 461
сейчас в каждый рип буду пехать эту говнокозину сру??? :pi_rat:
_________________
It was I'am ... :jn_pu_sk:
Медали и Ордена
ИзображениеИзображение
Свернуть
Не в сети
Профиль  
Начать новую темуОтветить на тему  [ Сообщений: 4 ] 
Вы не можете начинать темы
Вы не можете отвечать на сообщения
Вы не можете редактировать свои сообщения
Вы не можете удалять свои сообщения