Правила форума

  • В этом разделе создание новых тем Запрещено.
  • Для создания новых тем пользуйтесь Корневым разделом DVD и HD фильмы.
Начать новую темуОтветить на тему  [ 1 сообщение ] 
Торрент файл
Размер: 7.12 GB • Зарегистрирован: 5 лет 2 месяца • Статус: Проверено
Скачан: 15 раз • Желающих скачать: 0 • Поблагодарили: 3 раза
 Раздают: 0  |  0 KB/s  ]   Качают: 0  |  0 KB/s  ] 
 Полного источника не было 16 часов 
Сообщения
 Добавлено: 2011-09-12 22:25
Модератор релиз-группы
Аватара пользователя
Стаж: 9 лет 1 месяц
Возраст: 97
Сообщений: 11659
Спасибок: 6530
Лайков: 269
Десять ярдов (Девять ярдов 2) / The Whole Ten Yards

Изображение


Год выпуска: 2004
Страна: США, Warner Bros. / Franchise Pictures
Жанр: Криминальная комедия
Продолжительность: 01:38:32
Перевод: Профессиональный (полное дублирование)
Профессиональный многоголосый
Оригинальная звуковая дорожка
Cубтитры : Русские
Режиссер: Ховард Дойч / Howard Deutch

В ролях: Брюс Уиллис, Мэттью Перри, Аманда Пит, Наташа Хенстридж, Кевин Поллак, Силас Уир Митчелл, Таша Смит, Таллула Белль Уиллис, Джонни Уильямс, Карлос Запата, МакНалли Сагал, Карл Киарфалио, Док Дюаме, Монте Рекс Перлин, Нед Беллами, Лу Битти мл., Бэрри Томпсон, Фрэнк Пеше, Роберт Раслер, Джули Лотт, Брэд Оррисон, Фрэнк Коллисон, Джонни Месснер

Описание: Отошедший, с помощью своего друга-дантиста Николаса Озерански, от дел наемный убийца Джимми Тадески спокойно живет в своем бунгало на берегу океана в Мексике вместе со своей женой Джилл. Но однажды его идилию нарушает появление Озерански - он просит Джимми спасти свою жену Синтию, которая оказалась в руках гангстеров. У Тадески нет ни малейшего желания ввязываться в эту историю, но так как Николас привел за собой "хвост" - оказавшегося на свободе бандита Ласло Гоголака, ему приходится перейти к активным действиям...

Изображение
Качество: BDRip
Формат: MKV
Видео кодек: H.264
Аудио кодек: AC3, DTS
Видео: MPEG-4 AVC, 8016 Кбит/с, 1920x1080, 24.000 кадр/с
Аудио: Русский AC3, 6 ch, 448 Кбит/с [дубляж]
Аудио: Русский AC3, 6 ch, 384 Кбит/с [MVO]
Аудио: английский DTS, 6 ch, 1536 Кбит/с

скриншоты
Изображение

Изображение

Изображение

Изображение
Свернуть
Mi
Format : Matroska
File size : 7.12 GiB
Duration : 1h 38mn
Overall bit rate : 10.3 Mbps
Movie name : =kinozal.tv-HD=
Encoded date : UTC 2010-06-02 06:15:47
Writing application : mkvmerge v3.1.0 ('Happy up here') built on Jan 19 2010 12:09:24
Writing library : libebml v0.7.9 + libmatroska v0.8.1

Video
ID : 1
Format : AVC
Format/Info : Advanced Video Codec
Format profile : High@L4.1
Format settings, CABAC : Yes
Format settings, ReFrames : 4 frames
Muxing mode : Container profile=Unknown@4.1
Codec ID : V_MPEG4/ISO/AVC
Duration : 1h 38mn
Bit rate : 8 016 Kbps
Width : 1 920 pixels
Height : 1 080 pixels
Display aspect ratio : 16:9
Frame rate : 24.000 fps
Color space : YUV
Chroma subsampling : 4:2:0
Bit depth : 8 bits
Scan type : Progressive
Bits/(Pixel*Frame) : 0.161
Stream size : 5.37 GiB (75%)
Writing library : x264 core 96 r1612 97c7ecc
Encoding settings : cabac=1 / ref=4 / deblock=1:-1:-1 / analyse=0x3:0x113 / me=umh / subme=7 / psy=1 / psy_rd=1.00:0.00 / mixed_ref=1 / me_range=16 / chroma_me=1 / trellis=2 / 8x8dct=1 / cqm=0 / deadzone=21,11 / fast_pskip=1 / chroma_qp_offset=-2 / threads=6 / sliced_threads=0 / nr=0 / decimate=1 / interlaced=0 / constrained_intra=0 / bframes=3 / b_pyramid=2 / b_adapt=2 / b_bias=0 / direct=3 / weightb=1 / weightp=2 / keyint=250 / keyint_min=25 / scenecut=40 / intra_refresh=0 / rc_lookahead=40 / rc=2pass / mbtree=1 / bitrate=8016 / ratetol=1.0 / qcomp=0.60 / qpmin=10 / qpmax=51 / qpstep=4 / cplxblur=20.0 / qblur=0.5 / vbv_maxrate=50000 / vbv_bufsize=50000 / ip_ratio=1.40 / aq=1:1.00 / nal_hrd=none
Language : English

Audio #1
ID : 2
Format : AC-3
Format/Info : Audio Coding 3
Mode extension : CM (complete main)
Codec ID : A_AC3
Duration : 1h 38mn
Bit rate mode : Constant
Bit rate : 448 Kbps
Channel(s) : 6 channels
Channel positions : Front: L C R, Side: L R, LFE
Sampling rate : 48.0 KHz
Stream size : 316 MiB (4%)
Title : dub
Language : Russian

Audio #2
ID : 3
Format : AC-3
Format/Info : Audio Coding 3
Mode extension : CM (complete main)
Codec ID : A_AC3
Duration : 1h 38mn
Bit rate mode : Constant
Bit rate : 384 Kbps
Channel(s) : 6 channels
Channel positions : Front: L C R, Side: L R, LFE
Sampling rate : 48.0 KHz
Stream size : 271 MiB (4%)
Title : mvo
Language : Russian

Audio #3
ID : 4
Format : DTS
Format/Info : Digital Theater Systems
Codec ID : A_DTS
Duration : 1h 38mn
Bit rate mode : Constant
Bit rate : 1 510 Kbps
Channel(s) : 6 channels
Channel positions : Front: L C R, Side: L R, LFE
Sampling rate : 48.0 KHz
Bit depth : 16 bits
Stream size : 1.04 GiB (15%)
Language : English

Text
ID : 5
Format : UTF-8
Codec ID : S_TEXT/UTF8
Codec ID/Info : UTF-8 Plain Text
Language : Russian
Свернуть
_________________
Изображение
Не в сети
Профиль  
Начать новую темуОтветить на тему  [ 1 сообщение ] 
Вы не можете начинать темы
Вы не можете отвечать на сообщения
Вы не можете редактировать свои сообщения
Вы не можете удалять свои сообщения