Правила форума

  • В этом разделе создание новых тем Запрещено.
  • Для создания новых тем пользуйтесь Корневым разделом DVD и HD фильмы.
Начать новую темуОтветить на тему  [ Сообщений: 4 ] 
Торрент файл
Размер: 12.66 GB • Зарегистрирован: 5 лет 8 месяцев • Статус: Проверено
Скачан: 50 раз • Желающих скачать: 0 • Поблагодарили: 8 раз
 Раздают: 0  |  0 KB/s  ]   Качают: 0  |  0 KB/s  ] 
 Полного источника не было 2 года 
Сообщения
 Добавлено: 2011-03-17 09:50
Top-releaser
Аватара пользователя
Стаж: 7 лет 3 месяца
Возраст: 25
Сообщений: 1036
Спасибок: 2694
Лайков: 9
Детектив Ди и Тайна Призрачного Пламени / Detective Dee and the Mystery of the Phantom Flame

Изображение



Год выхода: 2010
Страна: Гонконг, Китай
Жанр: боевик, триллер, криминал
Продолжительность: 02:03:44
Перевод: Профессиональное (многоголосое) [лицензия]

Режиссер: Харк Цуй
Сценарий: Чэнь Гофу, Robert van Gulik, Jialu Zhang
Продюсер: Пегги Ли, Нансун Ши, Харк Цуй
Оператор: Чи Йинг Чан, Чор Кеунг Чан
Композитор: Питер Кам

В ролях: Энди Лау, Карина Лау, Ли Бинбин, Дэн Чао, Тони Люн Ка Фай, Жан-Мишель Касанова, Тедди Робин Кван, Ричард ЭнДжи, Яо Лу

Описание: 690 год н. э., династия Тан. В столице Лоян строят гигантскую буддийскую Ступу, где должны будут короновать первую китайскую императрицу Ву Цзэтянь. Однако в городе начинают происходить странные события, угрожающие сорвать торжество. И после того как несколько человек публично сжигают себя, императрица решает начать расследование, для чего назначает верховным судьей Ди Жэньцзе - человека, которого она же за семь лет до этого отправила тюрьму по обвинению в несогласии с режимом (он был, в частности, недоволен тем, что трон покойного императора заняла его жена).

KinoPoisk.ru: 6.555
IMDb.com: 6.6/10

pаздача группы:Изображение

Качество: BDRip 1080p
Формат: mkv
Видео: MPEG4 Video (H264) 1920x816 24.00fps
Аудио 1: Russian: DTS, 755 kb/s (6 ch) / DTS, 1510 kb/s (6 ch)
Аудио 2: Chinese: DTS, 1510 kb/s (6 ch)
Subtitle: Russian, English

Изображение

MediaInfo
General
Unique ID : 213983511965628760489756945931401016022 (0xA0FBB9AF39A8ECD69F8305B95059B2D6)
Complete name : G:\ReLease\Detektiv.Di.BDRip(1080p).mkv
Format : Matroska
File size : 12.7 GiB
Duration : 2h 3mn
Overall bit rate : 14.6 Mbps
Movie name : --SCHUMAHER--
Encoded date : UTC 2011-03-16 15:27:30
Writing application : mkvmerge v4.0.0 ('The Stars were mine') сборка от Jun 6 2010 16:18:42
Writing library : libebml v1.0.0 + libmatroska v1.0.0

Video
ID : 1
Format : AVC
Format/Info : Advanced Video Codec
Format profile : High@L4.1
Format settings, CABAC : Yes
Format settings, ReFrames : 5 frames
Codec ID : V_MPEG4/ISO/AVC
Duration : 2h 3mn
Bit rate : 10.9 Mbps
Width : 1 920 pixels
Height : 816 pixels
Display aspect ratio : 2.35:1
Frame rate : 24.000 fps
Color space : YUV
Chroma subsampling : 4:2:0
Bit depth : 8 bits
Scan type : Progressive
Bits/(Pixel*Frame) : 0.289
Stream size : 9.14 GiB (72%)
Writing library : x264 core 107 r1766 f9f0035
Encoding settings : cabac=1 / ref=5 / deblock=1:-2:-2 / analyse=0x3:0x113 / me=umh / subme=10 / psy=1 / psy_rd=1.10:0.15 / mixed_ref=1 / me_range=48 / chroma_me=1 / trellis=2 / 8x8dct=1 / cqm=2 / deadzone=21,11 / fast_pskip=0 / chroma_qp_offset=-2 / threads=12 / sliced_threads=0 / nr=0 / decimate=1 / interlaced=0 / constrained_intra=0 / bframes=6 / b_pyramid=2 / b_adapt=2 / b_bias=0 / direct=3 / weightb=1 / open_gop=0 / weightp=2 / keyint=250 / keyint_min=24 / scenecut=40 / intra_refresh=0 / rc_lookahead=40 / rc=2pass / mbtree=0 / bitrate=10871 / ratetol=1.0 / qcomp=0.70 / qpmin=10 / qpmax=51 / qpstep=4 / cplxblur=20.0 / qblur=0.5 / vbv_maxrate=45000 / vbv_bufsize=40000 / ip_ratio=1.40 / pb_ratio=1.30 / aq=1:0.80 / nal_hrd=none
Language : Chinese

Audio #1
ID : 2
Format : DTS
Format/Info : Digital Theater Systems
Codec ID : A_DTS
Duration : 2h 3mn
Bit rate mode : Constant
Bit rate : 755 Kbps
Channel(s) : 6 channels
Channel positions : Front: L C R, Side: L R, LFE
Sampling rate : 48.0 KHz
Bit depth : 24 bits
Compression mode : Lossy
Stream size : 668 MiB (5%)
Title : MVO
Language : Russian

Audio #2
ID : 3
Format : DTS
Format/Info : Digital Theater Systems
Codec ID : A_DTS
Duration : 2h 3mn
Bit rate mode : Constant
Bit rate : 1 510 Kbps
Channel(s) : 6 channels
Channel positions : Front: L C R, Side: L R, LFE
Sampling rate : 48.0 KHz
Bit depth : 24 bits
Compression mode : Lossy
Stream size : 1.30 GiB (10%)
Title : Tim Wagner
Language : Russian

Audio #3
ID : 4
Format : DTS
Format/Info : Digital Theater Systems
Codec ID : A_DTS
Duration : 2h 3mn
Bit rate mode : Constant
Bit rate : 1 510 Kbps
Channel(s) : 6 channels
Channel positions : Front: L C R, Side: L R, LFE
Sampling rate : 48.0 KHz
Bit depth : 24 bits
Compression mode : Lossy
Stream size : 1.30 GiB (10%)
Language : Chinese

Text #1
ID : 5
Format : UTF-8
Codec ID : S_TEXT/UTF8
Codec ID/Info : UTF-8 Plain Text
Language : Russian

Text #2
ID : 6
Format : UTF-8
Codec ID : S_TEXT/UTF8
Codec ID/Info : UTF-8 Plain Text
Language : English

Свернуть
Скриншоты
Изображение
Изображение
Изображение
Изображение
Изображение
Свернуть





release by FoTP
Не в сети
Профиль  
 Добавлено: 2011-03-18 21:57 (спустя 1 день 12 часов)
Аватара пользователя
Стаж: 8 лет 10 месяцев
Сообщений: 2032
Спасибок: 53740
Лайков: 6
Очень хороший фильм для любителей восточных единоборств.
Постановка боёв, кстати, Саммо Хунга Камбо.
Не в сети
Профиль  
 Добавлено: 2011-03-18 22:12 (спустя 15 минут)
Стаж: 6 лет 9 месяцев
Сообщений: 8
Хуета!!!!
Не в сети
Профиль  
 Добавлено: 2011-03-19 00:15 (спустя 2 часа 2 минуты)
Top-releaser
Аватара пользователя
Стаж: 7 лет 3 месяца
Возраст: 25
Сообщений: 1036
Спасибок: 2694
Лайков: 9
bvk воздержание-лучший способ сохранения здоровья (с) :-D
Не в сети
Профиль  
Начать новую темуОтветить на тему  [ Сообщений: 4 ] 
Вы не можете начинать темы
Вы не можете отвечать на сообщения
Вы не можете редактировать свои сообщения
Вы не можете удалять свои сообщения