Правила форума

  • В этом разделе создание новых тем Запрещено.
  • Для создания новых тем пользуйтесь Корневым разделом DVD и HD фильмы.
Начать новую темуОтветить на тему  [ 1 сообщение ] 
Торрент файл
Размер: 5.33 GB • Зарегистрирован: 4 года 6 месяцев • Статус: Проверено
Скачан: 77 раз • Желающих скачать: 0 • Поблагодарили: 12 раз
 Раздают: 0  |  0 KB/s  ]   Качают: 0  |  0 KB/s  ] 
 Полного источника не было 2 года 11 месяцев 
Сообщения
 Добавлено: 2012-05-31 12:31
Аватара пользователя
Стаж: 7 лет 11 месяцев
Возраст: 21
Сообщений: 517
Спасибок: 898
Лайков: 1
Дети сексу не помеха / Friends with Kids

«Family doesn't always go according to plan.»


Изображение
Год выпуска: 2011
Страна: Изображение США
Жанр: комедия
Продолжительность: 01:48:10
Перевод: Профессиональный (дублированный) | Лицензия |

Режиссер: Дженнифер Уэстфелд
Сценарий: Дженнифер Уэстфелд
Продюсер: Джошуа Астрачан, Дженнифер Уэстфелд, Риза Азиз
Оператор: Уильям Рексер
Композитор: Марсело Зарвос

В ролях: Адам Скотт, Дженнифер Уэстфелд, Джон Хэмм, Кристен Уиг, Майя Рудольф, Криc О’Дауд, Меган Фокс, Эдвард Бёрнс, Оуэн Бенто, Келли Бишоп

Описание: Есть ли секс после свадьбы? Все знают: в медовый месяц — страстный, через пару лет — уже не очень. Но выход есть.
Джейсон и Джули решают завести ребенка, но при этом остаться только друзьями. Десять минут, девять месяцев — малыш готов. И уже Джейсон приударяет за шикарной брюнеткой, а Джули встречается с брутальным немцем. Но правда ли, что дети сексу не помеха?…

kinopoisk.ru: 5.514

Доп. информация
Бюджет: 21 000 000 ($)
Сборы в России: $354 378
Сборы в США: $7 240 683
Мировая премьера: 9 сентября 2011
Рейтинг R — Restricted. Подростки до 17 лет допускаются на фильм только в сопровождении одного из родителей
Изображение
Ограничение — до 17 лет требуется сопровождение родителя или взрослого опекуна (возраст может меняться в некоторых регионах). Данный рейтинг показывает, что оценочная комиссия заключила, что некоторый материал оценённого фильма предназначается для взрослых. Родители должны больше узнать о фильме прежде, чем взять на его просмотр детей. Рейтинг R также может быть назначен из-за используемого в фильме языка, темы, насилия, секса или изображения употребления наркотиков..
Свернуть
Свернуть

Качество: BDRip
Формат: MKV
Видео: 5526 kb/s, 1280x720, 24.000 fps, x.264
Аудио 1: DTS, 1510 kb/s, 5.1, 48 kHz, 24 bits
Субтитры: Нет


MediaInfo
Общее
Полное имя :Deti.seksu.ne.pomeha.2011.D.BDRip.720p.IRONCLUB.mkv
Формат : Matroska
Версия формата : Version 2
Размер файла : 5,33 Гбайт
Продолжительность : 1 ч. 48 м.
Общий поток : 7033 Кбит/сек
Дата кодирования : UTC 2012-05-31 04:57:30
Программа кодирования : mkvmerge v5.3.0 ('I could have danced') built on Feb 9 2012 10:38:07
Библиотека кодирования : libebml v1.2.3 + libmatroska v1.3.0

Видео
Идентификатор : 1
Формат : AVC
Формат/Информация : Advanced Video Codec
Профиль формата : High@L4.1
Параметр CABAC формата : Да
Параметр ReFrames формата : 9 кадров
Идентификатор кодека : V_MPEG4/ISO/AVC
Продолжительность : 1 ч. 48 м.
Битрейт : 5526 Кбит/сек
Ширина : 1280 пикселей
Высота : 720 пикселей
Соотношение сторон : 16:9
Частота кадров : 24,000 кадра/сек
Цветовое пространство : YUV
Субдискретизация насыщенности : 4:2:0
Битовая глубина : 8 бит
Тип развёртки : Прогрессивная
Бит/(Пиксели*Кадры) : 0.250
Размер потока : 4,08 Гбайт (77%)
Библиотека кодирования : x264 core 120 r2164 da19765
Настройки программы : cabac=1 / ref=9 / deblock=1:-3:-3 / analyse=0x3:0x133 / me=umh / subme=11 / psy=1 / psy_rd=0.90:0.10 / mixed_ref=1 / me_range=32 / chroma_me=1 / trellis=2 / 8x8dct=1 / cqm=0 / deadzone=21,11 / fast_pskip=0 / chroma_qp_offset=-3 / threads=12 / sliced_threads=0 / nr=0 / decimate=1 / interlaced=0 / bluray_compat=0 / constrained_intra=0 / bframes=8 / b_pyramid=2 / b_adapt=2 / b_bias=0 / direct=3 / weightb=1 / open_gop=0 / weightp=2 / keyint=240 / keyint_min=22 / scenecut=40 / intra_refresh=0 / rc_lookahead=40 / rc=2pass / mbtree=1 / bitrate=5526 / ratetol=1.0 / qcomp=0.60 / qpmin=0 / qpmax=69 / qpstep=4 / cplxblur=20.0 / qblur=0.5 / vbv_maxrate=50000 / vbv_bufsize=62500 / nal_hrd=none / ip_ratio=1.40 / aq=2:1.00
Язык : English
Default : Да
Forced : Нет

Аудио
Идентификатор : 2
Формат : DTS
Формат/Информация : Digital Theater Systems
Идентификатор кодека : A_DTS
Продолжительность : 1 ч. 48 м.
Вид битрейта : Постоянный
Битрейт : 1510 Кбит/сек
Каналы : 6 каналов
Расположение каналов : Front: L C R, Side: L R, LFE
Частота : 48,0 КГц
Битовая глубина : 24 бит
Метод сжатия : С потерями
Размер потока : 1,14 Гбайт (21%)
Язык : Russian
Default : Да
Forced : Нет

Меню
00:00:00.000 : en:00:00:00.000
00:07:00.542 : en:00:07:00.542
00:13:01.708 : en:00:13:01.708
00:16:58.083 : en:00:16:58.083
00:22:46.958 : en:00:22:46.958
00:30:47.333 : en:00:30:47.333
00:38:35.167 : en:00:38:35.167
00:42:48.458 : en:00:42:48.458
00:50:03.958 : en:00:50:03.958
00:57:55.625 : en:00:57:55.625
01:01:01.583 : en:01:01:01.583
01:07:09.167 : en:01:07:09.167
01:16:16.375 : en:01:16:16.375
01:23:22.792 : en:01:23:22.792
01:29:51.917 : en:01:29:51.917
01:37:44.417 : en:01:37:44.417
Свернуть

Скриншоты

Изображение

Изображение

Изображение

Изображение

Свернуть
Не в сети
Профиль  
Начать новую темуОтветить на тему  [ 1 сообщение ] 
Вы не можете начинать темы
Вы не можете отвечать на сообщения
Вы не можете редактировать свои сообщения
Вы не можете удалять свои сообщения