Правила форума

  • В этом разделе создание новых тем Запрещено.
  • Для создания новых тем пользуйтесь Корневым разделом DVD и HD фильмы.
Начать новую темуОтветить на тему  [ Сообщений: 5 ] 
Торрент файл
Размер: 8.17 GB • Зарегистрирован: 5 лет 1 месяц • Статус: Проверено
Скачан: 198 раз • Желающих скачать: 0 • Поблагодарили: 31 раз
 Раздают: 0  |  0 KB/s  ]   Качают: 0  |  0 KB/s  ] 
 Полного источника не было 2 года 10 месяцев 
Сообщения
 Добавлено: 2011-11-05 21:49
Модератор релиз-группы
Аватара пользователя
Стаж: 9 лет 1 месяц
Возраст: 97
Сообщений: 11659
Спасибок: 6532
Лайков: 269
Дети шпионов 4D / Spy Kids: All the Time in the World in 4D

Изображение


Страна: США
Жанр: фантастика, боевик, комедия, приключения, семейный
Год выпуска: 2011
Продолжительность: 01:27:45
Перевод: Профессиональный (дублированный)
Оригинальная аудиодорожка
Cубтитры: английские

Режиссер: Роберт Родригес / Robert Anthony Rodriguez

В ролях: Джессика Альба, Дэнни Трехо, Джоэль МакХэйл, Алекса Вега, Дэрил Сабара, Роуэн Бланчард, Мэйсон Кук, Джереми Пивен, Белль Солорзано, Дженни Солорзано

Описание: Брат и сестра поневоле должны стать крутыми шпионами, чтобы помешать мечтающему о мировом господстве злодею, и выручить из беды собственных родителей, удалившихся на покой секретных суперагентов.
Изображение


Качество: BDRip 1080p
Формат: MKV
Видео: AVC, 1920X1080 ~ 11,4 kbps, 23,976 fps, 0.230 bit/pixel
Аудио: AC3, 384 kbps, 6 ch. |Russian|
Аудио 2: DTS, 1510 kbps, 6 ch. |English|
Cубтитры: английские
скриншоты
Изображение

Изображение

Изображение

Изображение
Свернуть
Mi
Format : Matroska
Format version : Version 2
File size : 8.17 GiB
Duration : 1h 27mn
Overall bit rate : 13.3 Mbps
Movie name : Дети шпионов 4D / Spy Kids: All the Time in the World in 4D (2011)
Encoded date : UTC 2011-11-05 12:41:14
Writing application : mkvmerge v5.0.1 ('Es ist Sommer') built on Oct 9 2011 11:55:43
Writing library : libebml v1.2.2 + libmatroska v1.3.0

Video
ID : 1
Format : AVC
Format/Info : Advanced Video Codec
Format profile : High@L4.1
Format settings, CABAC : Yes
Format settings, ReFrames : 4 frames
Codec ID : V_MPEG4/ISO/AVC
Duration : 1h 27mn
Bit rate : 11.4 Mbps
Width : 1 920 pixels
Height : 1 080 pixels
Display aspect ratio : 16:9
Frame rate : 23.976 fps
Color space : YUV
Chroma subsampling : 4:2:0
Bit depth : 8 bits
Scan type : Progressive
Bits/(Pixel*Frame) : 0.230
Stream size : 6.85 GiB (84%)
Title : Spy.Kids.All.the.Time.in.the.World.2011.BluRay.1080p.DTS.x264-CHD
Writing library : x264 core 118 r2085+614 d1cc25d
Encoding settings : cabac=1 / ref=4 / deblock=1:-3:-3 / analyse=0x3:0x113 / me=umh / subme=10 / psy=1 / fade_compensate=0.00 / psy_rd=1.05:0.10 / mixed_ref=1 / me_range=48 / chroma_me=1 / trellis=2 / 8x8dct=1 / cqm=2 / deadzone=21,11 / fast_pskip=0 / chroma_qp_offset=-2 / threads=12 / sliced_threads=0 / nr=0 / decimate=1 / interlaced=0 / bluray_compat=0 / constrained_intra=0 / fgo=0 / bframes=6 / b_pyramid=2 / b_adapt=2 / b_bias=0 / direct=3 / weightb=1 / open_gop=0 / weightp=2 / keyint=250 / keyint_min=23 / scenecut=40 / intra_refresh=0 / rc_lookahead=60 / rc=2pass / mbtree=1 / bitrate=11419 / ratetol=2.0 / qcomp=0.70 / qpmin=1 / qpmax=63 / qpstep=4 / cplxblur=20.0 / qblur=0.5 / vbv_maxrate=40000 / vbv_bufsize=30000 / nal_hrd=none / ip_ratio=1.40 / aq=2:1.00
Language : English

Audio #1
ID : 2
Format : AC-3
Format/Info : Audio Coding 3
Mode extension : CM (complete main)
Codec ID : A_AC3
Duration : 1h 27mn
Bit rate mode : Constant
Bit rate : 384 Kbps
Channel(s) : 6 channels
Channel positions : Front: L C R, Side: L R, LFE
Sampling rate : 48.0 KHz
Bit depth : 16 bits
Compression mode : Lossy
Stream size : 241 MiB (3%)
Title : AC3 5.1 @ 384 kb/s [Russian DUB, R5]
Language : Russian

Audio #2
ID : 3
Format : DTS
Format/Info : Digital Theater Systems
Codec ID : A_DTS
Duration : 1h 27mn
Bit rate mode : Constant
Bit rate : 1 510 Kbps
Channel(s) : 6 channels
Channel positions : Front: L C R, Side: L R, LFE
Sampling rate : 48.0 KHz
Bit depth : 24 bits
Compression mode : Lossy
Stream size : 948 MiB (11%)
Title : DTS 5.1 @ 1510 kb/s [English]
Language : English

Text
ID : 4
Format : UTF-8
Codec ID : S_TEXT/UTF8
Codec ID/Info : UTF-8 Plain Text
Title : English
Language : English
Свернуть
_________________
Изображение


Последний раз редактировалось Артурыч 2011-11-05 22:31, всего редактировалось 1 раз.
Не в сети
Профиль  
 Добавлено: 2011-11-05 22:31 (спустя 42 минуты)
Аватара пользователя
Стаж: 5 лет 6 месяцев
Возраст: 23
Сообщений: 484
Спасибок: 1403
Лайков: 1
Спасиба за рели3 :bra_vo: :co_ol:
Не в сети
Профиль  
 Добавлено: 2011-11-07 16:24 (спустя 1 день 17 часов)
Стаж: 6 лет 11 месяцев
Возраст: 28
Сообщений: 13
фильм для детей
Не в сети
Профиль  
 Добавлено: 2011-11-07 20:09 (спустя 3 часа)
Аватара пользователя
Стаж: 7 лет 5 месяцев
Возраст: 55
Сообщений: 8
спасибо Артурычу
Не в сети
Профиль  
 Добавлено: 2011-11-23 12:58 (спустя 15 дней)
Аватара пользователя
Стаж: 7 лет 3 месяца
Сообщений: 65
Лайков: 3
хотите сохранить разум детям не показывайте это г
Не в сети
Профиль  
Начать новую темуОтветить на тему  [ Сообщений: 5 ] 
Вы не можете начинать темы
Вы не можете отвечать на сообщения
Вы не можете редактировать свои сообщения
Вы не можете удалять свои сообщения