Правила форума

  • В этом разделе создание новых тем Запрещено.
  • Для создания новых тем пользуйтесь Корневым разделом DVD и HD фильмы.
Начать новую темуОтветить на тему  [ Сообщений: 4 ] 
Торрент файл
Размер: 10.4 GB • Зарегистрирован: 5 лет • Статус: Проверено
Скачан: 101 раз • Желающих скачать: 0 • Поблагодарили: 14 раз
 Раздают: 0  |  0 KB/s  ]   Качают: 0  |  0 KB/s  ] 
 Полного источника не было 1 год 9 месяцев 
Сообщения
 Добавлено: 2011-11-17 07:03
Top-releaser
Аватара пользователя
Стаж: 8 лет 7 месяцев
Сообщений: 1286
Спасибок: 3420
Лайков: 7
Девичник в Вегасе / Bridesmaids


«Отжиг по полной - мальчики отдыхают!»

Изображение
Год выпуска: 2011
Страна: США
Жанр: комедия
Продолжительность: 02:04:58
Перевод: Субтитры, Профессиональный (полное дублирование)

Режиссер: Пол Файг
Сценарий: Кристен Уиг, Энни Мумоло
Продюсер: Джудд Апатоу, Бэрри Мендел, Клэйтон Таунсенд, Пол Файг, Энни Мумоло
Оператор: Роберт Д. Йоумен
Композитор: Майкл Эндрюс

В ролях: Кристен Уиг (Annie), Майя Рудольф (Lillian), Роуз Бирн (Helen), Венди МакЛендон-Кови (Rita), Элли Кемпер (Becca), Мелисса МакКарти (Megan), Криc О’Дауд (Officer Nathan Rhodes), Терри Крюс (Boot Camp Instructor), Джессика Ст. Клэр (Whitney), Том Йи (Jewelry Store Couple), Илэйн Као (Jewelry Store Couple), Майкл Хичкок (Don Cholodecki)
Дублёры: Татьяна Шитова (Annie), Наталья Грачева (Lillian), Наталья Фищук (Helen), Ирина Киреева (Rita), Марина Бакина (Megan), Денис Беспалый (Jewelry Store Couple), Константин Карасик (Don Cholodecki), Инна Королёва, Диомид Виноградов (Gil), Ирина Пономарева (Annie's Mom), Пётр Иващенко (Dougie), Денис Виленкин (Helen's Stepson)

Описание: У Энни в личной жизни полный бардак, и ей совсем не до веселья. Но девушке придется забыть о своих проблемах: ведь вскоре ей предстоит отправиться на девичник к лучшей подруге. 
Девочки оторвутся так, как мальчикам и не снилось...


Раздача: Изображение

Изображение
Изображение

Бюджет: $32 500 000
Сборы в США: $169 106 725
Сборы в России: $2 971 431
Сборы в мире: $286 782 998
Мировая премьера: 28 апреля 2011
Релиз на DVD: 10 ноября 2011, «Двадцатый Век Фокс СНГ»
Релиз на Blu-ray: 10 ноября 2011, «Двадцатый Век Фокс СНГ»

Знаете ли Вы, что...
  • Среди кандидатов на место режиссёра картины числились Грег Моттола, Тодд Филлипс, Дэвид Гордон Грин, Дэвид Уэйн и Джейк Каздан. Однако все они были заняты в других проектах. Имевшаяся также единственная кандидатура женщины-режиссёра Энн Флетчер была отклонена продюсерами.
  • Последний фильм американской актрисы Джилл Клейбёрг, скончавшейся вскоре после окончания съёмок в ноябре 2010 года.
Свернуть

Изображение
Качество: BDRip
Формат: Matroska
Видео: AVC; 1920x800 (2.40:1); 8776 kbps; 23,976 fps; 0,238 bit/pixel
Аудио №1: Russian; AC3; 640 kbps; CBR; 6 channels; 16 bit
Аудио №2: Russian; DTS; 754 kbps; CBR; 6 channels; 24 bit
Аудио №3: English; DTS; 1509 kbps; CBR; 6 channels; 24 bit

Субтитры №1: Russian
Субтитры №2: English

Изображение
MediaInfo
Общее
Уникальный идентификатор : 204672159895756807031622999058228000533 (0x99FA6C954333572DBCB5430614913715)
Полное имя : E:\Видео\Devichnik.v.Vegase.2011.x264.BDRip.1080p.mkv
Формат : Matroska
Версия формата : Version 2
Размер файла : 10,4 Гбайт
Продолжительность : 2 ч. 4 м.
Общий поток : 11,9 Мбит/сек
Дата кодирования : UTC 2011-11-13 05:41:18
Программа кодирования : mkvmerge v5.0.1 ('Es ist Sommer') built on Oct 9 2011 11:55:43
Библиотека кодирования : libebml v1.2.2 + libmatroska v1.3.0

Видео
Идентификатор : 1
Формат : AVC
Формат/Информация : Advanced Video Codec
Профиль формата : High@L4.1
Параметр CABAC формата : Да
Параметр ReFrames формата : 3 кадра
Идентификатор кодека : V_MPEG4/ISO/AVC
Продолжительность : 2 ч. 4 м.
Битрейт : 8776 Кбит/сек
Ширина : 1920 пикселей
Высота : 800 пикселей
Соотношение сторон : 2,40:1
Частота кадров : 23,976 кадра/сек
Стандарт вещания : PAL
Цветовое пространство : YUV
Субдискретизация насыщенности : 4:2:0
Битовая глубина : 8 бит
Тип развёртки : Прогрессивная
Бит/(Пиксели*Кадры) : 0.238
Размер потока : 7,66 Гбайт (74%)
Язык : English
Default : Да
Forced : Нет
Основные цвета : BT.709-5, BT.1361, IEC 61966-2-4, SMPTE RP177
Характеристики трансфера : BT.709-5, BT.1361
Коэффициенты матрицы : BT.709-5, BT.1361, IEC 61966-2-4 709, SMPTE RP177

Аудио #1
Идентификатор : 2
Формат : AC-3
Формат/Информация : Audio Coding 3
Расширение режима : CM (complete main)
Идентификатор кодека : A_AC3
Продолжительность : 2 ч. 4 м.
Вид битрейта : Постоянный
Битрейт : 640 Кбит/сек
Каналы : 6 каналов
Расположение каналов : Front: L C R, Side: L R, LFE
Частота : 48,0 КГц
Битовая глубина : 16 бит
Метод сжатия : С потерями
Размер потока : 572 Мбайт (5%)
Язык : Russian
Default : Да
Forced : Нет

Аудио #2
Идентификатор : 3
Формат : DTS
Формат/Информация : Digital Theater Systems
Идентификатор кодека : A_DTS
Продолжительность : 2 ч. 4 м.
Вид битрейта : Постоянный
Битрейт : 755 Кбит/сек
Каналы : 6 каналов
Расположение каналов : Front: L C R, Side: L R, LFE
Частота : 48,0 КГц
Битовая глубина : 24 бит
Метод сжатия : С потерями
Размер потока : 674 Мбайт (6%)
Язык : Russian
Default : Нет
Forced : Нет

Аудио #3
Идентификатор : 4
Формат : DTS
Формат/Информация : Digital Theater Systems
Идентификатор кодека : A_DTS
Продолжительность : 2 ч. 4 м.
Вид битрейта : Постоянный
Битрейт : 1510 Кбит/сек
Каналы : 6 каналов
Расположение каналов : Front: L C R, Side: L R, LFE
Частота : 48,0 КГц
Битовая глубина : 24 бит
Метод сжатия : С потерями
Размер потока : 1,32 Гбайт (13%)
Язык : English
Default : Нет
Forced : Нет

Текст #1
Идентификатор : 5
Формат : UTF-8
Идентификатор кодека : S_TEXT/UTF8
Идентификатор кодека/Информация : UTF-8 Plain Text
Заголовок : forced
Язык : Russian
Default : Да
Forced : Нет

Текст #2
Идентификатор : 6
Формат : UTF-8
Идентификатор кодека : S_TEXT/UTF8
Идентификатор кодека/Информация : UTF-8 Plain Text
Язык : English
Default : Нет
Forced : Нет

Свернуть

Скриншоты

Изображение

Изображение

Изображение

Изображение

Свернуть
Не в сети
Профиль  
 Добавлено: 2011-11-19 23:20 (спустя 2 дня 16 часов)
Top-releaser
Аватара пользователя
Стаж: 8 лет 7 месяцев
Сообщений: 1286
Спасибок: 3420
Лайков: 7
Оригинальное название переводится как "Подружки невесты". Причём тут Вегас, если они до него не долетели? А по фильму могу сказать, добрая комедия, советую к просмотру.
Не в сети
Профиль  
 Добавлено: 2013-07-11 17:53 (спустя 1 год 7 месяцев)
Аватара пользователя
Стаж: 8 лет 1 месяц
Возраст: 41
Сообщений: 32
Спасибок: 116
Лайков: 1
Рекламный ход. Но если фильм хороший, то название и не важно. Качаю.
Не в сети
Профиль  
 Добавлено: 2014-07-15 07:59 (спустя 1 год)
Стаж: 9 лет
Сообщений: 13
Спасибок: 127
Помогите раздать, пожалуйста.


Тема поднималась пользователем Shamman 2014-07-15 07:59.
Не в сети
Профиль  
Начать новую темуОтветить на тему  [ Сообщений: 4 ] 
Вы не можете начинать темы
Вы не можете отвечать на сообщения
Вы не можете редактировать свои сообщения
Вы не можете удалять свои сообщения