Правила форума

  • В этом разделе создание новых тем Запрещено.
  • Для создания новых тем пользуйтесь Корневым разделом DVD и HD фильмы.
Начать новую темуОтветить на тему  [ Сообщений: 3 ] 
Торрент файл
Размер: 5.47 GB • Зарегистрирован: 3 года 8 месяцев • Статус: Проверено
Скачан: 10 раз • Желающих скачать: 0 • Поблагодарили: 4 раза
 Раздают: 0  |  0 KB/s  ]   Качают: 0  |  0 KB/s  ] 
 Полного источника не было 2 года 
Сообщения
 Добавлено: 2013-03-15 11:50
Аватара пользователя
Стаж: 5 лет 9 месяцев
Возраст: 20
Сообщений: 5
Спасибок: 21
Девушка моего лучшего друга / My Best Friend's Girl

Изображение


Год выпуска: 2008
Страна: США
Жанр: Комедия
Продолжительность: 01:40:52
Перевод: Профессиональный (дубляж) + Оригинальная звуковая дорожка
Субтитры: Английские
Режиссёр: Ховард Дойч
В ролях: Дэйн Кук, Кейт Хадсон, Джейсон Биггз, Алек Болдуин, Дженни Моллен, Лиззи Каплан, Диора Бэрд, Нат Торренс, Эндрю Колдуэлл, Таран Киллэм
Описание: Тэнк - симпатичный, веселый парень, правда, работа у него немного странная. Молодой человек предлагает свои услуги в качестве "подставного" ухажера, устраивающего девушкам на свиданиях сущий кошмар, заставляя тем самым их вернуться к брошенным приятелям.
Изображение Рейтинг: 5,8/10 из 26 652 проголосовавших

Качество: BDRip
Формат: MKV
Видео кодек: H.264
Аудио кодек: DTS
Видео: 1280x720, 5490 kbps, 23.976 fps
Аудио #1: Русский DTS 5.1, 48 KHz, 768 kbps [Профессиональный (дубляж)]
Аудио #2: Английский DTS 5.1, 48 KHz, 1536 kbps [Оригинальная звуковая дорожка]
Субтитры: Английские
MediaInfo
General
Уникальный идентификатор : 244408386340545254299177824205434708135 (0xB7DF57CE467D43F69EBF957FFAF2E0A7)
Полное имя : D:\Фильмы\Девушка моего лучшего друга (2008).mkv
Формат : Matroska
Версия формата : Version 1
Размер файла : 5.47 GiB
Продолжительность : 1h 40mn
Общий поток : 7 758 Kbps
Дата кодирования : UTC 2009-01-22 10:29:50
Программа кодирования : mkvmerge v2.4.2 ('Oh My God') built on Jan 18 2009 17:30:28
Библиотека кодирования : libebml v0.7.7 + libmatroska v0.8.1

Video
Идентификатор : 1
Формат : AVC
Формат/Информация : Advanced Video Codec
Профиль формата : High@L4.1
Параметр CABAC формата : Yes
Параметр ReFrames формата : 9 frames
Идентификатор кодека : V_MPEG4/ISO/AVC
Продолжительность : 1h 40mn
Битрейт : 5 490 Kbps
Ширина : 1 280 pixels
Высота : 720 pixels
Соотношение сторон : 16:9
Режим частоты кадров : Constant
Частота кадров : 23.976 fps
Цветовое пространство : YUV
Субдискретизация насыщенности : 4:2:0
Битовая глубина : 8 bits
Тип развёртки : Progressive
Бит/(Пиксели*Кадры) : 0.248
Размер потока : 3.76 GiB (69%)
Библиотека кодирования : x264 core 66 r1086M 39a2796
Настройки программы : cabac=1 / ref=9 / deblock=1:-3:-3 / analyse=0x3:0x113 / me=umh / subme=9 / psy_rd=1.0:0.0 / mixed_ref=1 / me_range=32 / chroma_me=1 / trellis=0 / 8x8dct=1 / cqm=2 / deadzone=6,4 / chroma_qp_offset=-2 / threads=6 / nr=0 / decimate=0 / mbaff=0 / bframes=3 / b_pyramid=1 / b_adapt=2 / b_bias=0 / direct=3 / wpredb=1 / keyint=240 / keyint_min=24 / scenecut=40(pre) / rc=2pass / bitrate=5490 / ratetol=1.0 / qcomp=0.60 / qpmin=10 / qpmax=51 / qpstep=4 / cplxblur=20.0 / qblur=0.5 / ip_ratio=1.40 / pb_ratio=1.30 / aq=1:1.00
Язык : English
Default : Yes
Forced : No

Audio #1
Идентификатор : 2
Формат : DTS
Формат/Информация : Digital Theater Systems
Режим : 16
Параметр Endianness формата : Big
Идентификатор кодека : A_DTS
Продолжительность : 1h 40mn
Вид битрейта : Constant
Битрейт : 755 Kbps
Каналы : 6 channels
Расположение каналов : Front: L C R, Side: L R, LFE
Частота : 48.0 KHz
Битовая глубина : 24 bits
Метод сжатия : Lossy
Размер потока : 544 MiB (10%)
Заголовок : DTS 5.1 768 kbps
Язык : Russian
Default : Yes
Forced : No

Audio #2
Идентификатор : 3
Формат : DTS
Формат/Информация : Digital Theater Systems
Режим : 16
Параметр Endianness формата : Big
Идентификатор кодека : A_DTS
Продолжительность : 1h 40mn
Вид битрейта : Constant
Битрейт : 1 509 Kbps
Каналы : 6 channels
Расположение каналов : Front: L C R, Side: L R, LFE
Частота : 48.0 KHz
Битовая глубина : 24 bits
Метод сжатия : Lossy
Размер потока : 1.06 GiB (19%)
Заголовок : DTS 5.1 1536 kbps
Язык : English
Default : No
Forced : No

Text
Идентификатор : 4
Формат : UTF-8
Идентификатор кодека : S_TEXT/UTF8
Идентификатор кодека/Информация : UTF-8 Plain Text
Язык : English
Default : No
Forced : No
Свернуть
Скриншоты
Изображение

Изображение

Изображение
Свернуть


Последний раз редактировалось vladpisarev 2013-03-16 22:54, всего редактировалось 2 раз(а).
Не в сети
Профиль  
 Добавлено: 2013-03-16 09:21 (спустя 21 час)
Модератор
Аватара пользователя
Стаж: 8 лет 11 месяцев
Сообщений: 516
Спасибок: 26888
Лайков: 1
Внимание: Для DVD и HD-разделов необходимы развернутые технические данные:
Для HD: Отчет MediaInfo или BDInfo (под спойлером)
Инструкция: [Инструкция] Как получить информацию по видео файлу.

Скриншоты должны быть полноразмерные. Для HD и HQRip-ов необходимы скриншоты в формате PNG, для остальных форматов PNG так же рекомендуется.
Подробные инструкции: [Инструкция] Как сделать скриншоты с видео
Не в сети
Профиль  
 Добавлено: 2013-03-16 22:55 (спустя 13 часов)
Аватара пользователя
Стаж: 5 лет 9 месяцев
Возраст: 20
Сообщений: 5
Спасибок: 21
Спасибо, исправлено :)
Не в сети
Профиль  
Начать новую темуОтветить на тему  [ Сообщений: 3 ] 
Вы не можете начинать темы
Вы не можете отвечать на сообщения
Вы не можете редактировать свои сообщения
Вы не можете удалять свои сообщения