Правила форума

  • В этом разделе создание новых тем Запрещено.
  • Для создания новых тем пользуйтесь Корневым разделом DVD и HD фильмы.
Начать новую темуОтветить на тему  [ Сообщений: 4 ] 
Торрент файл
Размер: 5.17 GB • Зарегистрирован: 3 года 11 месяцев • Статус: Проверено
Скачан: 30 раз • Желающих скачать: 0 • Поблагодарили: 4 раза
 Раздают: 0  |  0 KB/s  ]   Качают: 0  |  0 KB/s  ] 
 Полного источника не было 3 месяца 9 дней 
Сообщения
 Добавлено: 2012-12-11 16:32
Аватара пользователя
Стаж: 7 лет 2 месяца
Сообщений: 7167
Спасибок: 81980
Лайков: 2438
Девять в списке мертвых

Nine Dead

Изображение


Год выпуска: 2010
Страна: Изображение США
Слоган: «It doesn't have to end this way»
Жанр: Ужасы, триллер, драма
Продолжительность: 01:26:28

Режиссёр: Крис Шэдли
В ролях: Мелисса Джоан Харт, Джон Терри, Чип Бент, Лоуренс Тернер, Эрик Браун, Джон Кэйтс, Марк Маколей, Люсиль Сунг, Джеймс С. Виктор, Дэниэл Болдуин
Описание: Это триллер о выживании девяти незнакомцев, которые были похищены вооруженным в маске, который сказал им, что он будет убивать каждого из них через каждые десять минут, пока они будут узнавать, как все они связаны. Кто из девяти останется в живых и кто умрет?


Качество: BDRip 720p
Формат: MKV
Видео кодек: H264 (AVC)
Аудио кодек: AC3 (Dolby Digital), DTS
Видео: 1 280x544, 23.976 fps, 6 600 Kbps
Аудио #1: 48.0 KHz, 6 ch, 448 Kbps [Профессиональный (многоголосый закадровый)] Лицензия
Аудио #2: 48.0 KHz, 6 ch, 1 536 Kbps [Оригинальная звуковая дорожка]
Субтитры: Русские, Английские
Изображение
Изображение

Скриншоты
Изображение

Изображение

Изображение

Изображение

Изображение

Изображение
Свернуть
MI
General
Unique ID : 227389018111454577286817627212549877269 (0xAB11882AA2B0805D9232B6FC91126E15)
Complete name : Девять в списке мертвых.2010.mkv
Format : Matroska
Format version : Version 2
File size : 5.17 GiB
Duration : 1h 26mn
Overall bit rate : 8 558 Kbps
Movie name : Девять в списке мертвых
Encoded date : UTC 2010-12-13 14:54:51
Writing application : mkvmerge v2.9.7 ('Tenderness') built on Jul 1 2009 18:43:35
Writing library : libebml v0.7.7 + libmatroska v0.8.1

Video
ID : 1
Format : AVC
Format/Info : Advanced Video Codec
Format profile : High@L4.1
Format settings, CABAC : Yes
Format settings, ReFrames : 5 frames
Codec ID : V_MPEG4/ISO/AVC
Duration : 1h 26mn
Bit rate : 6 600 Kbps
Width : 1 280 pixels
Height : 544 pixels
Display aspect ratio : 2.35:1
Frame rate : 23.976 fps
Color space : YUV
Chroma subsampling : 4:2:0
Bit depth : 8 bits
Scan type : Progressive
Bits/(Pixel*Frame) : 0.395
Stream size : 3.88 GiB (75%)
Title : Девять в списке мертвых
Writing library : x264 core 84 r1400M 20fa784
Encoding settings : cabac=1 / ref=5 / deblock=1:-3:-3 / analyse=0x3:0x113 / me=umh / subme=10 / psy=1 / psy_rd=1.0:0.0 / mixed_ref=1 / me_range=32 / chroma_me=1 / trellis=2 / 8x8dct=1 / cqm=0 / deadzone=21,11 / fast_pskip=0 / chroma_qp_offset=-2 / threads=8 / sliced_threads=0 / nr=0 / decimate=1 / mbaff=0 / constrained_intra=0 / bframes=6 / b_pyramid=0 / b_adapt=2 / b_bias=0 / direct=3 / wpredb=1 / wpredp=2 / keyint=250 / keyint_min=25 / scenecut=40 / intra_refresh=0 / rc=2pass / mbtree=0 / bitrate=6600 / ratetol=1.0 / qcomp=0.60 / qpmin=10 / qpmax=51 / qpstep=4 / cplxblur=20.0 / qblur=0.5 / ip_ratio=1.40 / pb_ratio=1.30 / aq=1:0.60 / pulldown=0 / nal_hrd=0
Language : English
Default : Yes
Forced : No

Audio #1
ID : 2
Format : AC-3
Format/Info : Audio Coding 3
Mode extension : CM (complete main)
Format settings, Endianness : Big
Codec ID : A_AC3
Duration : 1h 26mn
Bit rate mode : Constant
Bit rate : 448 Kbps
Channel(s) : 6 channels
Channel positions : Front: L C R, Side: L R, LFE
Sampling rate : 48.0 KHz
Bit depth : 16 bits
Compression mode : Lossy
Stream size : 277 MiB (5%)
Title : AC3 - MVO
Language : Russian
Default : Yes
Forced : No

Audio #2
ID : 3
Format : DTS
Format/Info : Digital Theater Systems
Codec ID : A_DTS
Duration : 1h 26mn
Bit rate mode : Constant
Bit rate : 1 510 Kbps
Channel(s) : 6 channels
Channel positions : Front: L C R, Side: L R, LFE
Sampling rate : 48.0 KHz
Bit depth : 24 bits
Compression mode : Lossy
Stream size : 934 MiB (18%)
Title : DTS
Language : English
Default : No
Forced : No

Text #1
ID : 4
Format : UTF-8
Codec ID : S_TEXT/UTF8
Codec ID/Info : UTF-8 Plain Text
Language : Russian
Default : No
Forced : No

Text #2
ID : 5
Format : UTF-8
Codec ID : S_TEXT/UTF8
Codec ID/Info : UTF-8 Plain Text
Language : English
Default : No
Forced : No


Свернуть

Изображение
 rotametr нравится это.
Не в сети
Профиль  
 Добавлено: 2012-12-14 18:39 (спустя 3 дня)
Стаж: 7 лет 11 месяцев
Возраст: 19
Сообщений: 123
Спасибок: 128
Ну и раздача...
Не в сети
Профиль  
 Добавлено: 2012-12-15 07:05 (спустя 12 часов)
Аватара пользователя
Стаж: 7 лет 2 месяца
Сообщений: 7167
Спасибок: 81980
Лайков: 2438
Andy Black

Ну и ... коммент, что не так не догоняю?
Не в сети
Профиль  
 Добавлено: 2012-12-16 10:11 (спустя 1 день 3 часа)
Стаж: 7 лет 11 месяцев
Возраст: 19
Сообщений: 123
Спасибок: 128
Создали раздачу, но не раздавали.
Не в сети
Профиль  
Начать новую темуОтветить на тему  [ Сообщений: 4 ] 
Вы не можете начинать темы
Вы не можете отвечать на сообщения
Вы не можете редактировать свои сообщения
Вы не можете удалять свои сообщения