Правила форума

  • В этом разделе создание новых тем Запрещено.
  • Для создания новых тем пользуйтесь Корневым разделом DVD и HD фильмы.
Начать новую темуОтветить на тему  [ Сообщений: 2 ] 
Торрент файл
Размер: 10.9 GB • Зарегистрирован: 2 года 10 месяцев • Статус: Проверено
Скачан: 52 раза • Желающих скачать: 0 • Поблагодарили: 26 раз
 Раздают: 0  |  0 KB/s  ]   Качают: 0  |  0 KB/s  ] 
 Полного источника не было 7 часов 
Сообщения
 Добавлено: 2014-01-26 17:20
Аватара пользователя
Стаж: 9 лет 1 месяц
Сообщений: 8047
Спасибок: 122285
Лайков: 1194
Диана: История любви / Diana

«Принцесса, покорившая сердца миллионов. Кого любила она сама?»

Изображение


Год выпуска: 2013
Страна: Изображение США
Жанр: драма, мелодрама, биография
Продолжительность: 01:52:35
Субтитры: Русские
Перевод: Профессиональный (полное дублирование) [Лицензия]


Режиссер: Оливер Хиршбигель
Сценарий: Стивен Джеффрис, Кейт Снелл
Продюсер: Роберт Бернштейн, Тим Хаслам, Дуглас Рэй
Оператор: Райнер Клаусманн
Композитор: Кифус Чьянчья, Дэвид Холмс

В ролях: Наоми Уоттс, Нэвин Эндрюс, Дуглас Ходж, Джеральдин Джеймс, Чарльз Эдвардс, Дэниэл Пайрри, Кэс Анвар, Джульет Стивенсон, Джонатан Керриган, Лоуренс Белчер

Описание: Принцесса Диана — самая популярная женщина своего времени, ещё при жизни названная «принцессой людских сердец». Она покорила сердца миллионов, ей признавались в любви все — от принца Англии до могущественных миллиардеров… Но кого любила она сама?

Через несколько лет после расставания с принцем Чарльзом леди Диана почти забывает о личной жизни и посвящает себя общественной деятельности. Её график заполнен до предела, встречи и мероприятия идут нескончаемой чередой, пока, посещая одну из лондонских больниц, она случайно не знакомится с 36-летним кардиохирургом. Так начинается роман, ставший, по свидетельству многих друзей Дианы, «любовью всей её жизни». Официальные аудиенции в Кенсингтонском дворце и тайные свидания в ночных клубах, радость коротких встреч и боль расставаний, желание всегда быть вместе и стремление избежать огласки…


Изображение Изображение

Раздача группы: Изображение

Качество: BDRip (1080p)
Формат: Matroska
Видео: MPEG-4 AVC, 10.2 Мбит/с, 1920x1080
Аудио №1: Русский (DTS, 48,0 КГц, 6 ch, 1510 Кбит/c)
Аудио №2: Русский (AC3, 48,0 КГц, 6 ch, 640 Кбит/c)
Аудио №3: Английский (DTS, 48,0 КГц, 6 ch, 1510 Кбит/c)

MediaInfo
Общее
Уникальный идентификатор : 176243755006922497798379122515230476477 (0x84975001D437E3D788584BB0470248BD)
Полное имя : C:\Фильмы\Diana.2013.BDRip.1080p.[R.G.Daredevil].mkv
Формат : Matroska
Версия формата : Version 2
Размер файла : 10,9 Гбайт
Продолжительность : 1 ч. 52 м.
Общий поток : 13,9 Мбит/сек
Название фильма : CMEGRoup
Дата кодирования : UTC 2014-01-26 08:03:01
Программа кодирования : mkvmerge v6.7.0 ('Back to the Ground') 32bit built on Jan 8 2014 15:03:17
Библиотека кодирования : libebml v1.3.0 + libmatroska v1.4.1

Видео
Идентификатор : 1
Формат : AVC
Формат/Информация : Advanced Video Codec
Профиль формата : High@L4.1
Параметр CABAC формата : Да
Параметр ReFrames формата : 4 кадра
Идентификатор кодека : V_MPEG4/ISO/AVC
Продолжительность : 1 ч. 52 м.
Битрейт : 10,2 Мбит/сек
Ширина : 1920 пикселей
Высота : 1080 пикселей
Соотношение сторон : 16:9
Режим частоты кадров : Постоянный
Частота кадров : 24,000 кадра/сек
Цветовое пространство : YUV
Субдискретизация насыщенности : 4:2:0
Битовая глубина : 8 бит
Тип развёртки : Прогрессивная
Бит/(Пиксели*Кадры) : 0.205
Размер потока : 7,80 Гбайт (72%)
Заголовок : CMEGRoup
Библиотека кодирования : x264 core 138 r2358 9e941d1
Настройки программы : cabac=1 / ref=4 / deblock=1:-3:-3 / analyse=0x3:0x113 / me=umh / subme=11 / psy=1 / psy_rd=1.00:0.00 / mixed_ref=1 / me_range=32 / chroma_me=1 / trellis=2 / 8x8dct=1 / cqm=0 / deadzone=21,11 / fast_pskip=1 / chroma_qp_offset=-2 / threads=12 / lookahead_threads=1 / sliced_threads=0 / nr=0 / decimate=1 / interlaced=0 / bluray_compat=0 / constrained_intra=0 / bframes=5 / b_pyramid=2 / b_adapt=1 / b_bias=0 / direct=2 / weightb=1 / open_gop=0 / weightp=2 / keyint=240 / keyint_min=24 / scenecut=40 / intra_refresh=0 / rc_lookahead=40 / rc=2pass / mbtree=1 / bitrate=10200 / ratetol=1.0 / qcomp=0.60 / qpmin=10 / qpmax=51 / qpstep=4 / cplxblur=20.0 / qblur=0.5 / vbv_maxrate=62500 / vbv_bufsize=78125 / nal_hrd=none / ip_ratio=1.40 / aq=1:1.00 / zones=154772,162035,q=40
Язык : English
Default : Да
Forced : Нет

Аудио #1
Идентификатор : 2
Формат : DTS
Формат/Информация : Digital Theater Systems
Режим : 16
Параметр Endianness формата : Big
Идентификатор кодека : A_DTS
Продолжительность : 1 ч. 52 м.
Вид битрейта : Постоянный
Битрейт : 1509 Кбит/сек
Каналы : 6 каналов
Расположение каналов : Front: L C R, Side: L R, LFE
Частота : 48,0 КГц
Битовая глубина : 16 бит
Метод сжатия : С потерями
Размер потока : 1,19 Гбайт (11%)
Язык : Russian
Default : Да
Forced : Нет

Аудио #2
Идентификатор : 3
Формат : AC-3
Формат/Информация : Audio Coding 3
Расширение режима : CM (complete main)
Параметр Endianness формата : Big
Идентификатор кодека : A_AC3
Продолжительность : 1 ч. 52 м.
Вид битрейта : Постоянный
Битрейт : 640 Кбит/сек
Каналы : 6 каналов
Расположение каналов : Front: L C R, Side: L R, LFE
Частота : 48,0 КГц
Битовая глубина : 16 бит
Метод сжатия : С потерями
Размер потока : 515 Мбайт (5%)
Язык : Russian
Default : Нет
Forced : Нет

Аудио #3
Идентификатор : 4
Формат : DTS
Формат/Информация : Digital Theater Systems
Режим : 16
Параметр Endianness формата : Big
Идентификатор кодека : A_DTS
Продолжительность : 1 ч. 52 м.
Вид битрейта : Постоянный
Битрейт : 1509 Кбит/сек
Каналы : 6 каналов
Расположение каналов : Front: L C R, Side: L R, LFE
Частота : 48,0 КГц
Битовая глубина : 16 бит
Метод сжатия : С потерями
Размер потока : 1,19 Гбайт (11%)
Язык : English
Default : Нет
Forced : Нет

Текст
Идентификатор : 5
Формат : UTF-8
Идентификатор кодека : S_TEXT/UTF8
Идентификатор кодека/Информация : UTF-8 Plain Text
Язык : Russian
Default : Нет
Forced : Нет

Меню
00:00:00.000 : en:00:00:00.000
00:08:33.667 : en:00:08:33.667
00:17:02.375 : en:00:17:02.375
00:25:21.208 : en:00:25:21.208
00:30:16.708 : en:00:30:16.708
00:39:07.375 : en:00:39:07.375
00:44:08.583 : en:00:44:08.583
00:53:42.042 : en:00:53:42.042
01:01:09.208 : en:01:01:09.208
01:10:24.750 : en:01:10:24.750
01:17:31.250 : en:01:17:31.250
01:27:52.333 : en:01:27:52.333
01:36:01.167 : en:01:36:01.167
01:41:01.417 : en:01:41:01.417
01:47:59.667 : en:01:47:59.667
Свернуть
Знаете ли вы, что...
Ювелирный бренд Chopard официально представил коллекцию ювелирных изделий, которые были использованы во время съемок фильма. Изделия практически точно воссоздают знаковые украшения, в которых принцесса Диана появлялась на важных мероприятиях.

Постеры к фильму были случайно размещены на площади Альма в Париже, недалеко от входа в туннель, где принцесса погибла в автокатастрофе в 1997 году. Размещение плаката вызвало бурю негодования среди общественности, и в конечном итоге они были убраны по просьбе французского дистрибьютора Le Pacte.

Джессика Честейн могла исполнить роль принцессы Дианы, но покинула проект из-за несогласованности расписания съемок.

Во время миссии Красного Креста в 1996 году Диану везут на автомобиле Land Cruiser 100 вышедшему в 1998 году. Так же в одной сцене виден Range Rover Sport выпущенный в 2005 году.

Свернуть
Скриншоты
Изображение
Изображение
Изображение
Изображение
Свернуть
Не в сети
Профиль  
 Добавлено: 2014-02-14 22:18 (спустя 19 дней)
Стаж: 3 года 10 месяцев
Сообщений: 187
Лайков: 61
Прекрасный фильм! Очень трогательный и эмоциональный. Советую к просмотру. Действительно история любви, настоящей любви.
Не в сети
Профиль  
Начать новую темуОтветить на тему  [ Сообщений: 2 ] 
Вы не можете начинать темы
Вы не можете отвечать на сообщения
Вы не можете редактировать свои сообщения
Вы не можете удалять свои сообщения