Правила форума

  • В этом разделе создание новых тем Запрещено.
  • Для создания новых тем пользуйтесь Корневым разделом DVD и HD фильмы.
Начать новую темуОтветить на тему  [ Сообщений: 11 ] 
Торрент файл
Размер: 8.23 GB • Зарегистрирован: 5 лет 5 месяцев • Статус: Проверено
Скачан: 77 раз • Желающих скачать: 0 • Поблагодарили: 14 раз
 Раздают: 0  |  0 KB/s  ]   Качают: 0  |  0 KB/s  ] 
 Полного источника не было 1 год 10 месяцев 
Сообщения
 Добавлено: 2011-06-04 19:07
Модератор релиз-группы
Аватара пользователя
Стаж: 9 лет 1 месяц
Возраст: 97
Сообщений: 11659
Спасибок: 6530
Лайков: 269

Изображение Изображение ИзображениеИзображение
Дикий, дикий Вест / Wild Wild West

Изображение


Год выпуска: 1999
Страна: сша
Жанр: боевик, комедия
Продолжительность: 01:46:00
Перевод: Профессиональный (дубляж)
Роли дублировали:
Всеволод Кузнецов,Алексей Иващенко,Алексей Рязанцев,Александр Клюквин,Елена Соловьева
Оригинальная звуковая дорожка
Субтитры: английские (SDH)

Режиссёр: Барри Зонненфельд / Barry Sonnenfeld
В ролях: Уилл Смит, Кевин Клайн, Кеннет Брана, Сальма Хайек, М. Эммет Уолш, Тед Ливайн, Фредерик Ван Дер Вал, Мюзетта Вандер, София Энг, Линь Бай
Описание: Два суперагента 70-х годов прошлого века, располагающие технологическими штучками, спасают президента США Гранта от злодея-изобретателя Лавлэйса, ведущего борьбу за обладание южными штатами. Обозленный на весь мир, безногий калека при отсутствии детородного органа окружил себя целым гаремом красавиц, чем, вероятно, постоянно поддерживал в себе накал ненависти. Один из суперагентов — лихой и обаятельный чернокожий стрелок Джим Вест (Уилл Смит), а другой — Артемус Гордон (Кевин Клайн), белый джентльмен с манерами англичанина. На их стороне и знойная красотка Рита, плененная гигантским механическим пауком.

Изображение

Качество:BDRip
Формат: MKV
Видео кодек: MPEG4 AVC
Аудио кодек: AC3 (Dolby Digital)
Видео: MPEG-4 AVC Video, NTSC, 1920x1080, 16:9, 9215 kbps, 23.976 fps
Аудио #1: Russian, Dolby Digital Audio, 5.1, 48 kHz, CBR, 384 kbps [Профессиональный (дубляж)]
Аудио #2: English, DTS Audio, 5.1, 48 kHz, 1510 kbps, 24-bit [Оригинальная звуковая дорожка]
Субтитры: английские (SDH)
Скриншоты
Изображение

Изображение

Изображение

Изображение

Изображение
Свернуть

Mi
Format : Matroska
File size : 8.23 GiB
Duration : 1h 46mn
Overall bit rate : 11.1 Mbps
Encoded date : UTC 2011-05-30 02:21:38
Writing application : mkvmerge v4.6.0 ('Still Crazy After All These Years') сборка от Mar 10 2011 02:50:32
Writing library : libebml v1.2.0 + libmatroska v1.1.0

Video
ID : 1
Format : AVC
Format/Info : Advanced Video Codec
Format profile : High@L4.1
Format settings, CABAC : Yes
Format settings, ReFrames : 4 frames
Codec ID : V_MPEG4/ISO/AVC
Duration : 1h 46mn
Bit rate : 9 215 Kbps
Width : 1 920 pixels
Height : 1 080 pixels
Display aspect ratio : 16:9
Frame rate : 23.976 fps
Color space : YUV
Chroma subsampling : 4:2:0
Bit depth : 8 bits
Scan type : Progressive
Bits/(Pixel*Frame) : 0.185
Stream size : 6.66 GiB (81%)
Title : Wild Wild West
Writing library : x264 core 115 r1995 c1e60b9
Encoding settings : cabac=1 / ref=4 / deblock=1:0:0 / analyse=0x3:0x133 / me=umh / subme=7 / psy=1 / psy_rd=1.00:0.00 / mixed_ref=1 / me_range=16 / chroma_me=1 / trellis=1 / 8x8dct=1 / cqm=0 / deadzone=21,11 / fast_pskip=0 / chroma_qp_offset=-2 / threads=12 / sliced_threads=0 / nr=0 / decimate=1 / interlaced=0 / bluray_compat=0 / constrained_intra=0 / bframes=3 / b_pyramid=2 / b_adapt=1 / b_bias=0 / direct=3 / weightb=1 / open_gop=0 / weightp=2 / keyint=250 / keyint_min=23 / scenecut=40 / intra_refresh=0 / rc_lookahead=40 / rc=2pass / mbtree=1 / bitrate=9215 / ratetol=1.0 / qcomp=0.60 / qpmin=0 / qpmax=69 / qpstep=4 / cplxblur=20.0 / qblur=0.5 / ip_ratio=1.40 / aq=1:1.00
Language : English

Audio #1
ID : 2
Format : AC-3
Format/Info : Audio Coding 3
Mode extension : CM (complete main)
Codec ID : A_AC3
Duration : 1h 46mn
Bit rate mode : Constant
Bit rate : 384 Kbps
Channel(s) : 6 channels
Channel positions : Front: L C R, Side: L R, LFE
Sampling rate : 48.0 KHz
Bit depth : 16 bits
Compression mode : Lossy
Stream size : 291 MiB (3%)
Title : Dub
Language : Russian

Audio #2
ID : 3
Format : DTS
Format/Info : Digital Theater Systems
Codec ID : A_DTS
Duration : 1h 46mn
Bit rate mode : Constant
Bit rate : 1 510 Kbps
Channel(s) : 6 channels
Channel positions : Front: L C R, Side: L R, LFE
Sampling rate : 48.0 KHz
Bit depth : 24 bits
Compression mode : Lossy
Delay relative to video : 11ms
Stream size : 1.12 GiB (14%)
Title : Original
Language : English

Text
ID : 4
Format : UTF-8
Codec ID : S_TEXT/UTF8
Codec ID/Info : UTF-8 Plain Text
Title : Original (SDH)
Language : English
Свернуть
_________________
Изображение


Последний раз редактировалось Артурыч 2011-06-07 09:08, всего редактировалось 4 раз(а).
Не в сети
Профиль  
 Добавлено: 2011-06-04 20:19 (спустя 1 час 12 минут)
Модератор
Аватара пользователя
Стаж: 8 лет 1 месяц
Возраст: 20
Сообщений: 32130
Спасибок: 98562
Лайков: 80
Артурыч, спасибо ;)
Не в сети
Профиль  
 Добавлено: 2011-06-04 20:23 (спустя 4 минуты)
Модератор релиз-группы
Аватара пользователя
Стаж: 9 лет 1 месяц
Возраст: 97
Сообщений: 11659
Спасибок: 6530
Лайков: 269
Костян236
пожалуйста ;)
_________________
Изображение
Не в сети
Профиль  
 Добавлено: 2011-06-04 20:26 (спустя 2 минуты)
Модератор
Аватара пользователя
Стаж: 8 лет 1 месяц
Возраст: 20
Сообщений: 32130
Спасибок: 98562
Лайков: 80
Артурыч
отличный фильм :co_ol:
Не в сети
Профиль  
 Добавлено: 2011-06-04 20:41 (спустя 14 минут)
Модератор релиз-группы
Аватара пользователя
Стаж: 9 лет 1 месяц
Возраст: 97
Сообщений: 11659
Спасибок: 6530
Лайков: 269
Костян236
ага :-ok-:
_________________
Изображение
Не в сети
Профиль  
 Добавлено: 2011-06-04 20:42 (спустя 1 минута)
Модератор
Аватара пользователя
Стаж: 8 лет 1 месяц
Возраст: 20
Сообщений: 32130
Спасибок: 98562
Лайков: 80
лучший фильм :ya_hoo_oo:
Не в сети
Профиль  
 Добавлено: 2011-06-04 22:15 (спустя 1 час 32 минуты)
Аватара пользователя
Стаж: 8 лет 3 месяца
Возраст: 43
Сообщений: 3290
Спасибок: 21012
Лайков: 3
прекращаем спор :)
_________________
Изображение
Не в сети
Профиль  
 Добавлено: 2011-06-05 00:56 (спустя 2 часа 41 минута)
Аватара пользователя
Стаж: 8 лет 10 месяцев
Возраст: 36
Сообщений: 440
Спасибок: 5166

Изображение Изображение Изображение Изображение


Артурыч
Поддержите кнопочные ссылки. :)
Не в сети
Профиль  
 Добавлено: 2011-06-05 08:47 (спустя 7 часов)
Модератор релиз-группы
Аватара пользователя
Стаж: 9 лет 1 месяц
Возраст: 97
Сообщений: 11659
Спасибок: 6530
Лайков: 269
timosh :-ok-:
_________________
Изображение
Не в сети
Профиль  
 Добавлено: 2011-07-28 15:57 (спустя 1 месяц 23 дня)
Стаж: 7 лет 9 месяцев
Сообщений: 19
звук не совсем комфортный: эфекты - громкие, речь - тихая.
проверял разными игралками - везде одинаково.
Не в сети
Профиль  
 Добавлено: 2013-03-31 14:40 (спустя 1 год 8 месяцев)
Аватара пользователя
Стаж: 8 лет 2 месяца
Сообщений: 31
Спасибо. :)
Не в сети
Профиль  
Начать новую темуОтветить на тему  [ Сообщений: 11 ] 
Вы не можете начинать темы
Вы не можете отвечать на сообщения
Вы не можете редактировать свои сообщения
Вы не можете удалять свои сообщения